<?xml version="1.0" standalone="no"?>
<!DOCTYPE svg PUBLIC "-//W3C//DTD SVG 1.1//EN" "http://www.w3.org/Graphics/SVG/1.1/DTD/svg11.dtd" >
<svg xmlns="http://www.w3.org/2000/svg">
<defs>
  <font id="tabler-icons" horiz-adv-x="1010">
    <font-face font-family="tabler-icons"
      units-per-em="1000" ascent="986.5"
      descent="100" />
    <missing-glyph horiz-adv-x="0" />
    <glyph glyph-name="brand-amongus"
      unicode="&#xF205;"
      horiz-adv-x="1010" d="M465 817C489.86 817 526.13 815.287 549 813C574.587 810.441 584.361 811.855 604 804C629.246 793.901 652.332 780.668 670 763C689.371 743.629 703.69 713.62 717 687C735.451 650.098 742.746 603.1510000000001 750 556C752 543 755 530 755 526L756 520L767 517C795.893 512.185 844.345 502.327 867 491C880.832 484.084 898.042 472.895 904 458C911.01 443.98 910.157 439.7920000000001 912 414C917.947 330.7380000000001 927 236.213 927 150C927 113.96 926.288 68.592 923 39C919.364 6.28 914.34 -7.22 888 -16C871.077 -19.385 186.837 -15.768 178 -14C154.348 -6.116 147.629 10.967 144 40C138.413 84.693 135 114.3490000000001 135 172C135 241.377 139.959 279.233 149 338C151 351 153 363 153 365C154.84 370.52 141.922 378.2630000000001 136 383C115.295 399.564 101.92 426.395 96 456C95 461 93 470 93 476C93 517.185 104.595 542.325 120 568C127.312 580.185 137.302 588.302 147 598C161.61 612.61 184.526 625.842 206 633L217 636L219 646C238.765 744.822 308.318 798.188 412 813C419 814 430 816 436 816S455 817 465 817zM232 333C223.86 276.019 219 225.072 219 158C219 122.634 217.913 105.52 222 81C223 75 224 70 224 69C225 68 266 67 451 67H677V276C677 477.638 678.606 463.752 670 524C664.575 561.976 659.136 596.594 649 627C634.688 669.935 617.927 714.519 572 726C558.251 729.438 533.823 730.1179999999999 515 732C505 733 484 733 468 733S438 732 436 732C400.299 732 352.176 712.1759999999999 334 694C325.378 685.3779999999999 318.205 675.41 312 663C309 657 306 652 306 650V647H310C323.146 647 353.035 650 371 650C405.823 650 430.538 648.547 460 642C522.535 628.104 573.884 610.4639999999999 589 550C592.897 534.4110000000001 593 526.477 593 503C593 477.26 588.79 468.532 586 449C582.365 423.556 571.864 407.107 561 389C544.125 360.875 514.602 344.64 483 332C459.404 322.562 430.928 320.8930000000001 402 318C387 317 376 317 350 317C298.987 317 270.054 322.853 232 333zM374 566C354 566 333 565 326 565C302.286 565 245.634 560.317 229 552L215 545C196.484 535.742 177 512.02 177 486C177 435.343 219.172 424.38 259 413C290.886 403.89 312.68 401 356 401C399.904 401 429.577 402.192 462 413C497.11 424.703 509 460.943 509 508C509 543.001 500.828 545.043 473 552C435.938 561.2660000000001 426.865 566 374 566zM761 433C760 433 760 379 760 250V67H842L843 87V150C843 243.5940000000001 834.198 328.823 827 417C817.794 420.452 790.879 426.138 778 429C769 431 762 433 761 433z" />
    <glyph glyph-name="brand-badoo"
      unicode="&#xF206;"
      horiz-adv-x="1010" d="M302 775C344.028 775 377.0710000000001 764.4639999999999 406 750C414 746 425 741 431 737C461.052 716.966 489.497 689.704 510 661L517 671C536.892 695.864 559.514 719.723 588 736C595 740 605 747 612 750C643.67 763.573 670.168 774 716 774C775.837 774 812.406 755.556 850 733C871.697 719.981 891.63 699.644 908 680C943.746 637.105 968 581.55 968 504C968 414.394 946.68 351.2820000000001 919 289C910.315 269.459 897.946 249.419 887 233C827.393 143.589 745.662 75.047 630 42C589.57 30.448 565.38 26 510 26C471.093 26 462.515 26.581 436 31C371.281 41.7859999999999 311.975 65.875 267 98C237.683 118.941 218.806 132.194 192 159C146.602 204.398 116.787 250.48 89 313C68.663 358.759 59.51 408.4120000000001 53 467C52 477 52 493 52 509C52 539.6700000000001 55.564 546.386 59 567C68.462 623.773 99.115 668.115 133 702C163.77 732.77 204.844 760.4739999999999 256 769C267.447 770.908 279.875 774 292 774C295 774 300 775 302 775zM308 691C289.575 691 279.61 689.402 266 686C206.932 671.233 163.456 623.3679999999999 145 568C105.44 449.318 170.992 310.009 225 247C267.027 197.968 313.113 157.708 379 133C418.853 118.055 454.372 109 510 109C567.37 109 608.465 120.786 649 137C688.675 152.87 726.4639999999999 176.464 755 205C761 211 772 221 778 228C815.695 271.977 848.8 321.304 867 385C876.414 417.95 880.628 445.534 884 486C887.46 544.821 872.957 580.404 851 617C848 622 841 629 838 633C820.655 656.126 792.69 671.524 764 683C748.774 689.09 739.1 690 716 690C660.618 690 629.323 668.323 601 640C580.124 619.124 561.309 592.5799999999999 552 560C546.21 539.735 534.657 525 510 525C485.046 525 473.846 539.5419999999999 468 560C460.836 585.0740000000001 445.4940000000001 607.8820000000001 431 626C410.842 651.197 386.0900000000001 669.164 354 682C340.058 687.577 327.69 691 308 691zM322 525C303.23 525 288.826 513.48 284 499C282 494 282 492 282 475C282 451.089 282.771 439.3 288 421C290 414 292 404 294 399C314.358 348.105 340.1720000000001 308.862 380 277C412.876 250.7000000000001 452.209 234 510 234C583.745 234 630.296 264.2960000000001 668 302C708.946 342.9460000000001 739 402.097 739 482C739 496.355 736.322 503.678 729 511C721.217 518.783 712.727 525 698 525C669.146 525 658.76 507.611 656 480C656 463.219 651.744 448.7200000000001 649 435C642.076 400.38 624.17 376.17 603 355C598 350 588 344 583 340C568.802 328.6420000000001 552.476 325.158 534 319C530 318 521 318 510 318C486.826 318 476.164 318.918 462 326L448 333C431.192 341.404 413.138 357.15 402 372C388.483 390.023 374.477 412.144 370 439C367.626 453.245 364 463.012 364 480C362.327 496.725 362.349 502.651 354 511C345.991 519.009 337.273 525 322 525z" />
    <glyph glyph-name="brand-bandcamp"
      unicode="&#xF207;"
      horiz-adv-x="1010" d="M645 692C895 692 931 692 936 691C952.118 685.627 968 673.727 968 652C968 645 968 642 967 638C966.576 636.729 673.434 129.434 664 120C657.803 113.803 651.594 111.864 643 109C639 108 562 108 364 108C101.684 108 99.337 105.22 73 114C65.853 116.3830000000001 59.006 126.991 55 133C53 138 52 140 52 148S52 159 54 163C56.284 169.8540000000001 324.9940000000001 666.742 334 678C340.307 684.307 345.313 687.104 354 690C359 691 399 692 645 692zM621 608H389C378.4460000000001 586.893 388.57 608.177 164 192H611L732 400C798 514 853 607 853 607S749 608 621 608z" />
    <glyph glyph-name="brand-beats"
      unicode="&#xF208;"
      horiz-adv-x="1010" d="M518 816C572.269 816 607.844 805.045 650 793C676.847 785.33 706.197 769.535 728 755C734 751 745 745 752 740C780.122 719.913 807.295 693.49 830 667C875.205 614.26 904.582 551.09 921 469C926.277 442.611 926 432.576 926 400C926 322.915 909.682 261.192 881 211C877 204 872 192 868 186C852.258 162.387 836.235 137.235 816 117L793 94C772.79 73.79 747.842 57.895 724 42C718 38 706 33 699 29C656.655 4.803 606.866 -6.59 548 -15C541 -16 525 -16 510 -16C366.081 -16 276.3590000000001 44.64 204 117C190.573 130.427 177.435 148.348 167 164C124.516 227.727 93 304.861 93 412C93 442.781 96.97 460.87 103 488C125.691 590.112 175.576 662.208 243 720C265.945 739.667 288.82 755.91 317 770C357.559 790.28 404.55 806.364 458 814C465 815 476 816 483 816H518zM480 732C463.286 732 441.368 726.193 427 723V536C434.83 539.914 441.516 545.606 450 549C475.816 559.326 506.626 569.398 544 566C591.454 560.068 623.394 545.685 653 522C691.823 490.941 718 442.858 718 374C718 317.7000000000001 695.084 279.0840000000001 666 250C649.51 233.51 636.895 220.812 614 211C588.794 200.197 571.9110000000001 192 536 192C486.282 192 455.861 204.093 426 224C420 228 411 234 406 239L388 257C368.027 276.973 352.492 309.048 347 342C341.272 376.362 343 408.2680000000001 343 530V688C294.714 659.028 257.934 622.4 227 576C218.048 562.571 207.325 541.976 202 526C200 520 195 510 193 503C184.175 472.112 177 440.455 177 400C177 358.895 182.469 326.749 194 296C206.502 262.6620000000001 218.494 231.6320000000001 239 206C249.21 193.237 254.906 186.312 266 173C276.0950000000001 160.886 294.086 145.936 306 137C329.615 119.29 364.361 99.702 394 87C401 84 413 82 419 80C432.854 75.382 451.407 72.5990000000001 467 70C473 69 488 67 500 67C535.335 67 560.567 68.162 588 76C595 78 606 81 613 83S630 90 636 92C660.179 100.06 685.883 114.506 704 129C727.81 148.049 753.273 169.031 772 194C789.798 217.73 810.505 254.8450000000001 823 284C826 291 828 303 830 309C840.242 339.727 842 356.197 842 400C842 444.112 840.332 460.005 830 491C828 497 826 509 823 516C809.96 546.428 790.923 580.1030000000001 773 604C749.98 634.694 718.523 661.318 686 683C672.571 691.952 651.976 702.675 636 708C630 710 620 715 613 717C581.318 726.052 549.749 733 508 733C498 733 486 732 480 732zM534 483C484.373 483 454.737 459.476 438 426C430.53 411.06 427 396.416 427 374C427 349.602 435.676 336.541 445 321C461.436 293.607 489.044 276 532 276C559.318 276 571.251 284.125 589 293C603.646 300.322 618.758 320.395 625 336C630.623 350.057 634 357.338 634 378C634 414.382 622.574 434.426 604 453C587.124 469.876 566.547 483 534 483z" />
    <glyph glyph-name="brand-coinbase"
      unicode="&#xF209;"
      horiz-adv-x="1010" d="M555 857C597.178 857 604.875 854.1610000000001 634 850C652.91 847.299 671.515 842.557 689 836C708.433 828.713 724.123 824.938 742 816C780.87 796.565 814.447 775.294 846 749C852 744 861 734 867 729C877.121 718.879 884 713.2760000000001 884 700V688C883 684 881 680 879 675C874.943 665.533 731.983 521.492 723 517C692.833 496.889 666.469 533.354 649 545C617.727 565.8489999999999 571.19 583.038 516 572C450.981 558.996 414.117 518.2339999999999 388 466C386 462 385 454 383 449C376.403 432.51 377 425.983 377 400C377 366.477 380.923 348.155 392 326C408.7200000000001 292.56 430.355 266.987 462 248C474.587 240.447 478.917 239.6330000000001 493 234C532.8 218.0800000000001 592.24 223.12 626 240C643.68 248.8400000000001 658.96 258.9600000000001 672 272C684.212 284.212 699.515 290.1620000000001 721 283C729.675 279.53 876.921 130.118 877 130C882.59 122.547 885 113.0700000000001 885 102C885 79.1760000000001 865.57 67.487 851 55C844 49 832 38 824 32S804 19 798 15S784 5 778 2L748 -13C690.419 -41.7910000000001 629 -58 542 -58C505.53 -58 496.595 -54.324 470 -51C439.725 -47.216 412.522 -37.57 387 -28C331.293 -7.11 283.1430000000001 25.734 242 61C225.215 75.388 208.398 95.203 194 112C188 119 181 131 176 137C149.037 169.356 133.863 211.84 117 254C103.889 286.778 101.33 321.02 95 359C94 365 93 378 93 388C93 425.338 95.006 459.527 102 491C115.658 552.4639999999999 137.955 605.932 168 651C188.977 682.467 210.42 711.5029999999999 239 736C273.865 765.884 308.728 794.598 354 814C388.249 828.678 427.79 844.97 470 851C481.307 852.615 505.259 857 516 857H555zM547 775C540 775 531 774 528 774C465.05 774 412.4890000000001 749.245 370 728C355.037 720.519 334.4 704.933 321 696C275.0420000000001 665.361 245.674 618.429 218 570C197.682 534.443 187.046 492.275 179 444C178 438 177 423 177 410C177 351.991 184.867 310.0220000000001 201 267C228.804 192.856 276.95 135.179 336 93C393.49 51.937 462.737 25 561 25C593.157 25 616.43 29.694 642 37C670.626 45.179 693.843 52.92 718 65C740.477 76.24 753.74 86.8440000000001 774 99C779 102 782 106 782 107S764 126 742 148L701 188L692 182C653.887 159.132 611.92 140 551 140C512.55 140 484.4 148.533 456 158C420.76 169.747 392.773 192.227 369 216C326.1670000000001 258.833 293 314.6470000000001 293 400C293 470.714 315.385 517.179 346 558C363.93 581.906 388.849 604.31 415 620C451.728 642.037 492.464 659 551 659C581.004 659 602.857 655.38 625 648L646 641C664.182 634.94 686.948 620.3679999999999 701 611C701 611 720 629 742 652L782 693C760.34 707.44 736.056 727.833 710 739C663.925 758.7470000000001 613.139 775 547 775z" />
    <glyph glyph-name="brand-disney"
      unicode="&#xF20A;"
      horiz-adv-x="1010" d="M676 213C650.312 213 635 231.5940000000001 635 257C635 267.858 640.642 273.283 644 280C646.954 285.91 656.227 290.6130000000001 663 294C671.406 298.203 676 297.001 676 308C676 330.9460000000001 645.748 335.3 629 342C602.145 352.742 571.55 352.807 538 357C530 358 511 358 496 358H468V165L480 163C554.09 150.651 666.295 141.235 735 167C752.91 173.716 769.756 179.405 783 190C794.309 199.047 807.586 208.781 816 220C832.0360000000001 241.382 843 271.0660000000001 843 308C843 413.577 787.662 473.115 729 522C713.58 534.85 700.798 544.876 683 556C637.445 584.472 578.816 619.395 523 638C514 641 498 647 488 651C463.907 660.637 430.12 666.876 404 674C358.639 686.371 325.88 691 268 691C236.444 691 215.78 690.3969999999999 192 687C185 686 178 685 177 685C174.66 683.83 180.54 679.383 182 675C192.288 644.137 174.728 615 144 615C97.39 615 64.645 637.063 53 672C52 675 52 680 52 686C52 730.227 84.304 745.768 118 757C139.77 764.2570000000001 169.77 768.11 197 772C204 773 216 774 224 774H274C386.246 774 461.898 747.034 546 719C613.514 696.495 680.833 660.977 734 623C771.648 596.108 810.549 564.5260000000001 841 529C862.616 503.781 882.625 473.751 898 443C917.025 404.95 927 360.8920000000001 927 304C927 280.403 920.86 261.2970000000001 917 242C904.117 177.588 856.685 134.3920000000001 807 106C768.657 84.09 719.01 76.43 667 69C659 68 639 68 610 68C548.466 68 532.8820000000001 70.303 486 77C479 78 473 80 472 80H469V47L468 14C462.866 2.021 457.06 -8.98 445 -13C428.654 -18.448 408.629 -15.629 399 -6C393.192 -0.192 389.679 6.9640000000001 387 15C386 18 385 36 385 62L384 104L372 110C341.3450000000001 123.138 306.094 140.076 281 158C251.55 179.0360000000001 219.512 199.148 201 230C187.994 251.677 177 268.727 177 304C177 319.173 181.876 332.814 188 342C190 345 193 352 197 356L212 371C247.95 406.95 307.87 418.082 366 431L384 435S385 466 385 504C386 563 386 575 387 579C392.677 596.031 407.037 608 430 608C451.034 608 460.788 592.424 468 578V441L486 442C565.958 442 638.048 433.477 691 407C710.99 397.006 729.144 384.1430000000001 742 367C751.807 353.924 760 340.4880000000001 760 318C760 267.847 740.4639999999999 238.732 707 222C697.597 217.298 689.271 213 676 213zM382 349C363.123 349 336.607 339.202 321 334L300 327C287.905 322.9690000000001 278.084 316.0560000000001 269 310C229.948 283.966 347.3880000000001 212.12 371 202C378 199 383 196 383 196S384 230 384 272V349H382z" />
    <glyph glyph-name="brand-flipboard"
      unicode="&#xF20B;"
      horiz-adv-x="1010" d="M514 817C844 817 858 817 864 815C893.636 807.59 917.722 783.113 925 754C927 747 926 740 926 650S927 554 925 547C917.257 516.0260000000001 894.935 493.733 864 486C856 484 856 483 767 483H677V396C677 310 676 310 674 302C665.545 268.18 641.809 244.452 608 236C600 234 600 233 514 233H427V143C427 55 426 52 424 45C416.695 15.782 393.1600000000001 -7.71 364 -15C357 -17 350 -16 260 -16S164 -17 157 -15C126.629 -7.407 102.514 15.944 95 46C93 53 94 65 94 400S93 747 95 754C103.168 786.672 129.55 807.888 162 816C168 817 235 817 514 817zM510 733H177V67H343V172C343 245 343 279 344 283C350.028 301.0850000000001 359.951 309.983 378 316C381 317 421 317 486 317C588 317 589 317 591 319S593 323 593 424C593 494 593 529 594 533C597.864 544.592 604.39 558.13 616 562C619 563 624 565 626 566C629 567 669 567 737 567H843V733H510z" />
    <glyph glyph-name="brand-google-photos"
      unicode="&#xF20C;"
      horiz-adv-x="1010" d="M260 212C260 276.403 284.2680000000001 320.574 311 358H230L148 359C116.583 369.473 88.549 389.484 93 434C93 441 95 450 96 456C101.969 491.81 112.298 519.947 129 545C151.831 579.2470000000001 182.014 609.863 222 627C250.477 639.204 282.054 650 322 650C359.098 650 384.48 641.174 412 632C433.2680000000001 624.9110000000001 451.162 610.226 468 599V680C468 751 469 762 470 767C479.902 796.706 502.024 817 542 817C560.61 817 574.956 813.5840000000001 591 809C633.122 796.965 670.781 777.263 696 747C712.533 727.16 726.004 713.6569999999999 737 688C749.204 659.523 760 627.946 760 588C760 547.59 749.457 515.066 737 486C734 479 728 471 725 466C719.89 457.483 714.247 449.346 709 442H790C865 442 872 442 878 440C899.89 432.703 919.214 415.145 925 392C926 387 926 382 926 370C926 281.0800000000001 878.3340000000001 227.5 827 189C823 186 814 182 809 179C777.734 163.367 743.902 150 697 150C660.376 150 633.283 159.905 606 169C584.69 176.1040000000001 569.07 189.62 552 201V120L551 38C542.268 11.803 529.98 -8.005 502 -15C497 -16 492 -16 480 -16C427.0180000000001 -16 396.074 1.53 362 21C339.275 33.985 322.861 52.174 307 72C291.691 91.136 281.737 113.034 272 139C263.68 161.188 260 183.982 260 212zM553 732C552 732 552 672 552 588S552 443 553 443C584.956 443 611.517 465.213 630 480C658.06 502.447 676 538.764 676 588C676 628.7760000000001 663.688 655.64 645 679C624.108 705.114 599.613 720.597 562 730C558 731 553 732 553 732zM328 566H312C297.015 566 293.189 562.437 281 560C268.95 557.5899999999999 254.751 551.563 246 545C230.685 533.514 216.246 524.87 205 508C197.435 496.651 187.361 481.443 184 468L180 452C179 448 178 444 178 443S223 442 323 442H467V446C467 448 464 455 463 460C457.666 486.67 442.8 503.599 429 522C426 526 418 531 414 535C395.548 553.452 363.02 566 328 566zM842 358H553V354C553 352 556 345 557 340C561.893 315.538 574.93 294.0700000000001 590 279C614.94 254.06 647.469 234 697 234C728.932 234 751.245 240.5470000000001 772 253C777 256 785 261 789 265C798.882 274.882 808.575 280.625 816 293C825.157 308.262 833.945 319.725 838 340C839 345 842 352 842 354V358zM466 357C452.643 357 437.331 349.5320000000001 426 345C394.49 332.396 368.549 303.372 356 272C348.654 253.637 344 239.023 344 212C344 150.074 373.175 117.86 408 90C417.173 82.661 430.594 76.852 442 74L458 70C462 69 466 68 467 68S468 112 468 212V357H466z" />
    <glyph glyph-name="brand-grindr"
      unicode="&#xF20D;"
      horiz-adv-x="1010" d="M194 817C196 817 206 816 217 814C296.858 799.48 380.8110000000001 795.879 469 790C485 789 507 789 526 789C566.092 789 599.592 792.4 636 795C691.1 798.936 743.851 806.047 796 813C821 817 825 817 831 816C835 815 840 814 843 812C848 810 858 802 883 779C901 762 917 746 919 744S923 737 924 734C926 729 926 727 926 712C926 637.042 916.402 564.227 911 494C903.74 399.618 885.406 312.626 865 231C863 223 858 209 855 202S849 183 846 176C836.072 152.835 822.544 123.035 805 109C790.146 97.116 774.636 86.477 758 74C737.031 58.273 712.754 47.502 688 34C665.485 21.72 648.303 15.559 626 6C619 3 606 -1 598 -3L570 -10C549.698 -15.075 537.593 -16 511 -16C474.632 -16 454.818 -11.204 426 -4C378.5950000000001 7.852 332.923 32.8200000000001 293 55C272.831 66.205 251.997 81.145 234 94C227 99 218 107 214 111S204 120 201 124C193.06 134.587 179.727 162.636 174 176C171 183 168 195 165 202C150.01 236.978 143.104 276.48 135 317C117.96 402.201 106.394 494.097 100 590C97.146 632.815 94 667.94 94 712C94 727 94 729 96 734C97 737 99 742 101 744S119 762 137 779C162.11 802.716 169.042 809.6800000000001 185 815C188 816 192 817 194 817zM210 730C209 730 204 727 193 717L178 702V694C178 648.908 185.05 590.24 188 546C190.488 508.672 192.145 498.418 197 462C210.765 358.762 224.977 259.0460000000001 264 181C269.367 170.265 270.903 170.3540000000001 284 161C311.242 141.5410000000001 336.54 125.23 369 109C397.644 94.678 427.98 78.837 463 73C477.982 70.503 492.622 67 510 67C565.45 67 603.808 86.73 644 105C672.947 118.158 683.63 127.22 710 144C727.758 155.3 747.728 166.214 756 180C768.124 198.186 774.134 223.4020000000001 782 247C799.62 299.86 808.805 364.8250000000001 819 426C821 438 823 458 824 469C830.243 537.6800000000001 842 613.219 842 686V702A12080.152 12080.152 0 0 0 811 731L788 727C720.162 716.563 649.87 712.7909999999999 578 708C563 707 541 705 528 705C425.375 705 328.725 714.04 238 727C224 729 211 730 210 730zM316 442C342.554 442 370.65 437.044 395 434C454.052 426.618 493.26 405.2200000000001 510 355C513.813 366.438 517.785 381.785 526 390L539 403C573.673 430.738 628.3820000000001 435.338 685 441C719.953 443.497 746.073 439.944 766 425C770 422 776 418 779 416C794.222 405.852 802 380.783 802 356C802 335.327 789.725 312.967 780 300C769.044 285.3920000000001 751.656 269.328 735 261C723.836 255.418 720.046 251.3490000000001 707 247C685.482 239.827 669.988 234 640 234C598.71 234 575.728 249.204 552 267C541.941 274.544 538.632 281.824 531 292C524.812 300.25 516.521 311.9160000000001 514 322C513 326 511 331 511 333S510 338 510 338S509 335 509 333C509 324.823 502.367 314.7340000000001 499 308C494.096 298.1910000000001 484.733 286.6 479 278C473.42 269.63 461.46 262.3450000000001 453 256C434.118 241.8390000000001 412.058 234 379 234C348.293 234 334.0900000000001 240.637 312 248C289.71 255.43 271.544 267.456 256 283L242 297C231.8 307.2000000000001 225.01 324.962 221 341C220 345 218 351 218 356C218 385.7150000000001 228.134 402.134 243 417C246 420 251 424 255 426L269 433C276.693 436.847 292.093 441 302 441C306 441 312 442 316 442zM320 358C314 358 308 357 306 357S303 356 303 356C305.032 353.29 309.263 345.492 313 343C329.925 331.717 348.45 317 376 317C397.967 317 405.033 323.033 416 334C419 338 422 341 421 341C415.548 341 403.224 347.5560000000001 396 349C375.92 353.016 344.022 358 320 358zM701 358C666.364 358 634.418 350.8540000000001 607 344C603 343 599 341 599 341C598 341 601 338 604 334C614.751 323.249 622.223 317 644 317C671.524 317 690.154 331.77 707 343C711.046 345.697 715.055 353.7580000000001 717 357C717 357 709 358 701 358z" />
    <glyph glyph-name="brand-pushover"
      unicode="&#xF20E;"
      horiz-adv-x="1010" d="M616 816C587.594 816 572.69 815.6320000000001 549 813C498.346 807.372 458.082 793.0409999999999 420 774C375.985 751.9929999999999 339.628 726.732 309 691C291.038 670.0450000000001 276.33 649.884 262 626C238.976 587.626 219 541.88 219 481C219 437.958 226.015 401 269 401C290.013 401 308 419.198 308 440C308 453.854 302 461.66 302 476C302 540.2819999999999 331.682 587.6179999999999 362 624C367 630 374 639 380 645S395 658 400 662C453.02 704.4159999999999 511.653 732 608 732C645.304 732 654.373 733.876 678 726C698.343 719.219 710.88 715.3389999999999 726 704C750.866 685.35 760 651.023 760 607C760 590.985 755.39 579.173 751 566C732.573 510.719 691.276 475.016 644 448C601.2090000000001 423.548 545.792 407.053 485 403C510.942 475.365 555.8 595.4 572 644C578.832 671.328 552.774 696.755 524 691C511.36 687.84 497.975 680.925 494 669C493 666 439 522 376 349L260 34L261 24C261 0.3819999999999 275.991 -11.248 295 -16C315.01 -20.002 329.052 -8.922 337 3C344.866 14.799 450.74 312.74 452 314C453 317 453 316 464 317C500.992 317 541.189 327.698 573 333C614.828 339.972 651.658 358.3300000000001 685 375C693 379 705 387 712 392C745.73 416.094 777.742 442.389 800 478C825.564 518.903 843 555.6469999999999 843 622C843 664.848 832.872 686.321 821 716C813.365 735.087 799.429 752.6569999999999 784 765C742.685 798.052 691.262 816 616 816z" />
    <glyph glyph-name="brand-vinted"
      unicode="&#xF20F;"
      horiz-adv-x="1010" d="M797 858C810.672 858 818.79 855.21 826 848C829 845 834 842 836 839C842.571 829.144 843 826.4449999999999 843 808C843 785.677 839.191 775.9590000000001 835 755C795.879 559.394 738.203 369.211 685 183C665.057 113.198 648.675 78.609 609 31C604 25 594 16 588 11S574 -2 570 -5C552.599 -18.05 520.19 -38.953 496 -45C469.623 -51.595 439.513 -58 404 -58C360.335 -58 337.057 -46.057 315 -24C304.043 -13.043 298.52 -1.9110000000001 290 13C262.129 61.774 257.618 138.67 248 206C231.23 323.396 228.344 447.8400000000001 220 573C219 588 219 619 219 642C219 676 219 687 220 698C230.759 784.067 293.169 818 390 818C423.423 818 442.935 811.299 462 797C490.544 775.592 511 736.6949999999999 511 688V574C511 519 510 452 510 426V379C510 380 525 422 542 473C571.596 561.787 581.637 586.383 604 649C628.52 717.653 651.833 773.066 703 814C708 818 716 824 721 828S737 836 743 840C758.83 850.553 772.692 858 797 858zM747 740C747 741 743 738 739 734C713.876 708.876 701.731 671.303 687 633C658.977 560.139 623.781 446.416 594 367C567.255 295.6800000000001 543.0840000000001 215.861 514 148C507.058 131.802 503.037 117.346 487 112C475.781 108.26 462.87 108.044 451 112C444.618 116.255 434.814 125.3730000000001 431 133C425.64 141.0410000000001 425.937 150.376 424 162C423 168 422 181 422 192C422 232.884 423.253 338.3350000000001 425 382C425.964 406.09 428.372 673.28 427 687C423.401 712.193 422.23 735 395 735C375.701 735 350.9460000000001 731.986 335 728C296.2920000000001 718.323 302 685.616 302 628C302 528.012 309.813 447.1570000000001 318 353C325.948 261.592 331.01 181.951 349 101C353.777 79.502 355.806 67.388 364 51C374.612 29.776 382.49 25 414 25C430.053 25 444.463 29.577 459 32C500.303 41.179 534.1 68.8 556 98C575.863 124.484 585.58 139.922 596 179C628.363 300.362 668.133 426.844 700 549C711.903 594.629 732.165 667.823 741 712C744 727 747 739 747 740z" />
    <glyph glyph-name="brand-vivaldi"
      unicode="&#xF210;"
      horiz-adv-x="1010" d="M828 816C899.14 816 943.037 768.89 961 715C966.343 698.973 968 688.85 968 666C968 647.384 964.327 639.308 961 626C960 622 957 614 954 608S906 523 853 431S730 216 696 158C652.976 84.605 637.855 51.854 619 33C610.296 24.2960000000001 601.741 17.306 592 10C588 7 580 4 575 1C557.183 -9.6900000000001 532.93 -17 506 -17C477.343 -17 463.549 -13.274 445 -4C435.477 0.7619999999999 424.1 6.9 417 14L404 27C400 31 396 37 394 41S376 70 360 97C286.073 221.751 163.692 438.526 94 558C67.967 602.6279999999999 63.977 604.0889999999999 54 644C53 649 53 659 53 672C53 730.004 78.143 762.606 112 788C134.28 804.71 158.453 815 198 815C229.246 815 244.718 811.5699999999999 264 800C274.712 793.573 285.908 788.092 294 780C318.673 755.327 331.227 728.864 350 694C364.1600000000001 667.703 407.895 588.21 421 562C426 552 434 542 436 538C445.148 519.702 465.557 506.962 482 496C489.222 491.186 503.717 488.057 514 486C519 485 528 483 536 483C573.948 483 599.64 489.984 623 504C660.313 526.3879999999999 664.957 567.531 670 623C672.454 649.9970000000001 678.247 673.234 683 697C690.97 736.847 704.862 762.6469999999999 732 783C750.246 796.685 769.158 807.54 795 814C799 815 806 816 810 816H828zM203 732H190C175.3 732 162.156 722.156 154 714C144.804 704.804 135 691.355 135 674C135 663.053 136.47 652.796 141 646C143 643 162 607 185 568C230.48 490.88 381.954 225.1379999999999 426 150C450.75 107.78 455.176 94.824 471 79C474 76 478 72 481 71L493 67C522.037 61.192 547.004 79.004 561 93C563 95 579 122 596 152C613.55 182.97 861.101 609.202 878 643C881.868 652.67 885 661.737 885 675C885 707.414 856.174 733 824 733C806.0889999999999 733 790.857 724.857 781 715C771.388 706.99 768.768 698.838 766 685C765 680 761 670 760 663C752.791 612.537 750.977 545.954 731 506L722 488C693.81 431.62 626.749 400 544 400C471.903 400 428.678 423.322 392 460C374.992 477.008 367.085 488.012 354 512C341.9940000000001 534.012 276.105 656.212 264 678C259 687 253 698 250 702C239.469 716.042 227.186 732 203 732z" />
    <glyph glyph-name="brand-walmart"
      unicode="&#xF211;"
      horiz-adv-x="1010" d="M509 817C532.852 817 544.889 801.3340000000001 551 783C552 779 552 746 552 670S552 561 551 557C544.959 538.876 536.45 528.8620000000001 517 524C490.743 518.749 475.46 537.6179999999999 469 557C468 561 468 594 468 670S468 779 469 783C474.66 799.981 486.697 817 509 817zM406 480C406 459.741 386.693 442 366 442C359 442 356 443 352 444C349 445 316 463 278 484S196 529 181 537C163 547 151 554 148 557C140.929 562.304 135 573.998 135 585C135 605.549 146.248 619.124 160 626C162 627 168 629 171 629H182C186 629 191 627 196 624C200.735 622.105 388.8160000000001 517.184 392 514C399.976 506.024 406 496.183 406 480zM654 442C631.168 442 615 459.702 615 483C615 497.558 620.334 511.167 630 516C630 516 829.29 626.764 830 627C834 628 837 629 844 629C867.066 629 885 610.648 885 588C885 574.162 879.34 565.3399999999999 872 558C868 554 847 542 770 499C717 469 671 445 668 444C664 443 661 442 654 442zM175 171C153.061 171 135 190.009 135 212C135 225.838 140.66 234.66 148 242C155.034 249.034 329.449 345.225 351 356C354 357 359 358 366 358C386.883 358 406 340.2580000000001 406 320C406 302.453 401.053 295.053 392 286C387.085 282.314 198.603 175.534 188 172C184 171 181 171 175 171zM656 358C661 358 666 357 669 356C676.017 353.661 864.55 249.4500000000001 872 242C879.28 234.7200000000001 885 225.932 885 212C885 197.8680000000001 878.656 189.656 871 182C863.608 176.456 857.742 171 846 171C842 171 836 171 833 172C830.969 172.677 631.312 281.688 628 285C620.007 292.9930000000001 614 304.077 614 320C614 338.799 630.602 350.8 643 357C645 358 652 358 656 358zM509 277C486.613 277 474.73 260.187 469 243C468 239 468 206 468 130S468 21 469 17C474.892 -0.675 490.135 -21.373 517 -16C535.903 -11.274 544.98 -1.0599999999999 551 17C552 21 552 54 552 130S552 239 551 243C544.818 261.545 533.16 277 509 277z" />
    <glyph glyph-name="brand-wish"
      unicode="&#xF212;"
      horiz-adv-x="1010" d="M96 691C73.523 691 64.1 680.65 55 667C52 662 52 661 52 650C52 633.979 55.224 629.7760000000001 63 622C75.005 609.995 113.073 596.692 186 568C247 544 297 523 297 523C295.25 505.346 272 286.923 272 274C272 211.592 301.847 169.115 338 142C365.13 121.651 398.233 108 446 108C469.17 108 491.299 114.7670000000001 510 121C533.57 128.856 553.475 138.98 571 153C577.582 158.266 594.5 174.05 600 179C604.413 176.058 609.405 166.595 614 162L627 149C637.519 138.481 648.625 132.589 664 126C689.444 115.096 713.991 105.545 752 109C860.375 122.547 923.858 183.004 951 278C954 289 954 297 961 388C965 441 968 489 968 494C968 516.518 950.817 528.546 933 533C908.987 539.0029999999999 892.861 520.5840000000001 887 503C883.036 487.146 873.941 310.804 868 291C855.387 253.1610000000001 831.5889999999999 221.2530000000001 796 206C775.704 197.302 761.517 192 734 192C717.7860000000001 192 708.972 195.417 698 202C693 205 686 209 683 212S674 219 672 222C663.024 235.4640000000001 655 249.015 655 272C655 320.1470000000001 671.467 416.197 669 431C664.365 449.538 647.31 471.327 622 465C606.238 465 593.087 449.26 589 437C587.495 432.484 571.697 299.486 571 296C567.237 277.187 559.738 266.564 551 252C543.092 238.8200000000001 527.106 224.7380000000001 514 216C491.898 201.266 475.695 193 439 193C423 193 422 193 413 196C408 198 401 200 398 202L386 210C372.666 218.889 362.513 237.9500000000001 358 256C357 260 355 265 355 269C355 299.4500000000001 362.064 335.193 371 422C380 509 384 548 384 554C384 569.481 372.906 579.366 364 587L234 639C111 688 103 691 96 691z" />
    <glyph glyph-name="brand-yatse"
      unicode="&#xF213;"
      horiz-adv-x="1010" d="M304 817C308 817 314 815 317 814S336 803 352 794C366.213 786.005 533.847 689.153 539 684C545.64 677.36 547.887 672.3389999999999 551 663C552 659 552 636 552 589C552 551 553 521 553 521C598.767 550.956 655.9110000000001 588.9549999999999 668 595C673.553 597.7760000000001 681.184 598 689 598C692 598 697 597 700 596S734 577 768 558S847 512 869 500C900 482 910 476 914 472C923.306 462.694 933.22 440.831 922 424C920 421 916 416 913 413C909 409 870 386 777 331C648.226 255.8820000000001 374.646 91.312 256 23C223 4 194 -13 191 -14S184 -17 181 -17S173 -17 170 -16L158 -12C147.402 -8.468 140.902 4.196 136 14L135 138C135 251 135 262 137 268C139.85 276.553 144.476 283.476 150 289C152 291 178 307 207 324L260 354V568C260 774 260 781 262 787C266.19 799.5699999999999 274.03 807.515 285 813C287 814 292 816 294 816S300 817 304 817zM344 702V517C344 408 344 329 343 325C340.377 314.506 337.717 307.717 331 301C328 298 311 288 272 265L218 233V166C218 123 218 99 219 99S258 121 305 149C434.4600000000001 226.125 545.969 291.044 684 373C748 411 800 441 800 442C800 445.077 686.614 507.692 686 508L657 489C635.243 475.402 547.413 415.706 526 405C516.328 400.164 502.731 401.423 492 405C481.505 408.498 474.492 421.015 470 430C468 434 468 442 468 533V631L406 667C372 686 344 702 344 702z" />
    <glyph glyph-name="brand-youtube-kids"
      unicode="&#xF214;"
      horiz-adv-x="1010" d="M694 733C747.24 733 778.01 714.2429999999999 809 691C834.984 671.512 858.128 641.488 867 606C872.092 585.633 927 355.722 927 336C927 301.773 920.597 276.194 909 253L900 235C894.628 224.257 882.953 212.953 874 204C855.295 185.295 834.139 170.456 808 160C785.796 151.1180000000001 767.708 150.476 738 148C664.37 141.864 564.192 136.73 511 119C505 117 476 107 447 97S391 76 387 75C371.483 71.121 359.0470000000001 67 336 67C293.7970000000001 67 271.8210000000001 73.59 243 88C202.014 108.4930000000001 161.036 147.8200000000001 151 198C147.451 215.7430000000001 93 442.021 93 458C93 505.185 104.54 542.174 126 569C130 574 136 583 142 589C167.07 614.0699999999999 197.769 635.962 240 643C241.08 643.1800000000001 662.6990000000001 731.675 664 732C668 733 682 733 694 733zM688 650C669.265 650 587.919 630.784 569 627C499.527 613.105 385.376 589.528 311 573C276.81 565.402 252.14 566.0930000000001 231 552C203.302 533.534 178 514.8299999999999 178 468V452L204 338C218 275 231 220 233 215C242.56 191.098 258.009 171.597 282 162C335.796 140.481 359.185 154.0650000000001 421 176C452 187 483 199 491 201L519 208C575.56 222.14 591.402 220.956 674 227C745.861 232.2580000000001 753.1320000000001 229.6520000000001 789 244C821.013 256.805 843 288.103 843 333C843 347.954 789.965 574.106 787 583C778.531 608.405 761.09 626.4549999999999 738 638C724.438 644.781 708.968 650 688 650zM426 525C427.3570000000001 525 643.455 483.773 653 479C659.877 476.708 668.658 467.684 672 461C681.37 446.9460000000001 674.4 422.4 666 414C664.313 412.313 487.885 280.442 485 279C480 276 476 275 470 275C454.338 275 439.54 280.919 434 292C433 294 430 297 429 300C428.724 300.8300000000001 385 472.596 385 486C385 502.796 396.732 513.155 407 520C412.706 523.804 418.084 525 426 525zM484 429C483 429 483 428 483 428C491.84 392.636 489.121 404.45 494 389C509.535 401.0830000000001 498.245 391.563 533 419C503.484 424.366 488.8 429 484 429z" />
    <glyph glyph-name="brand-zoom"
      unicode="&#xF215;"
      horiz-adv-x="1010" d="M760 190C760 140.773 726.328 121.6230000000001 690 108H466C276.333 108 250.55 104.89 210 113C176.123 119.775 148.839 140.215 131 164C128 168 122 175 120 179L111 197C101.456 216.089 98.133 233.204 94 258C93 266 93 320 93 444C93 540 94 620 94 624C94 640.252 104.256 656.256 113 665C122.146 674.146 132.607 684.4010000000001 147 688C151 689 156 691 159 691S262 692 381 692C554.04 692 591.539 695.092 627 688C640.324 685.335 655.169 678.9159999999999 667 673C704.265 654.367 730.213 627.568 749 590C841.523 667.653 859.91 683.9549999999999 866 687C880.69 696.793 905.28 688.72 914 680C920.166 673.8340000000001 923.1 666.702 926 658C927 654 927 584 927 400S927 146 926 142C919.959 123.876 911.45 113.862 892 109C882.816 107.163 871.722 109.186 866 113C862 115 843 131 810 160L760 203V190zM392 608H177V433L178 258C185.68 227.2820000000001 199.233 201.691 230 194C238 192 241 192 457 192H676V367C676 524 675 543 674 548C667.765 566.707 653.401 586.299 636 595C626.222 602.3340000000001 618.282 603.491 606 607zM843 480L842 559A32254.804 32254.804 0 0 1 761 490V314C787.967 290.3 814.965 266.63 842 243L843 322V480z" />
    <glyph glyph-name="brand-zwift"
      unicode="&#xF216;"
      horiz-adv-x="1010" d="M560 775L896 774C913.288 765.355 927 755.259 927 730C927 727 925 723 924 720S870 632 796 516L670 318L692 317C727.03 317 741.379 310.448 765 301C813.003 281.799 843 232.433 843 166C843 143.1130000000001 837.77 134.0800000000001 834 119C826.687 89.751 802.713 65.1420000000001 780 50C763.94 39.293 749.745 31.624 728 28L718 26L478 25C304 25 235 25 228 26C194.7 31.55 167.821 42.543 146 60C134.288 69.37 126.395 81.258 117 93C101.055 112.932 94 137.812 94 172C94 201.578 98.945 216.89 109 237C115.384 249.7680000000001 233.881 433.131 266 483H250C225.201 483 208.889 483.845 191 491C171.733 498.707 153.705 507.295 140 521C112.2 548.8 93 580.934 93 637C93 643 95 651 96 656C108.474 718.367 145.992 755.998 206 771C210 772 215 774 219 774S376 775 560 775zM523 692C366 692 236 691 232 691C199.275 691 177 661.677 177 629C177 595.725 196.83 574.793 224 568C229 567 242 567 288 567C337.777 567 344.99 567.6700000000001 362 562C374.783 557.74 384 542.8240000000001 384 525C384 516 384 514 382 509C381.978 508.933 183.076 198.114 183 198C179.256 192.384 177 180.423 177 172C177 133.348 205.362 113.948 240 109C247 108 333 108 480 108C694 108 708 108 714 110C734.218 116.74 752.614 131.459 758 153C759 158 759 163 759 172C759 196.805 750.147 206.852 738 219C730.338 224.108 724.182 228.454 714 231C707 233 703 233 649 233C615 233 589 233 586 234C568.96 239.68 552 250.577 552 273C552 280 553 283 554 287C556.356 296.427 808 689.569 808 691C808 692 689 692 523 692z" />
    <glyph glyph-name="ad"
      unicode="&#xEA02;"
      horiz-adv-x="1010" d="M517 734L816 733L826 731C851.91 725.818 877.534 713.082 892 695C906.153 677.309 919.835 657.826 925 632C927 624 926 612 926 400C926 160.473 930.226 192.9020000000001 920 152C913.75 126.9980000000001 894.292 104.7190000000001 876 91C862.139 80.604 842.6610000000001 71.933 823 68C814 66 798 66 510 66C220 66 205 66 196 68C160.915 75.0170000000001 135.288 94.616 117 119C106.962 132.384 98.644 149.783 95 168C93 176 94 188 94 400C94 639.527 89.774 607.098 100 648C107.927 679.706 133.302 705.65 160 719C172.757 725.379 189.686 733 208 733C213 733 352 734 517 734zM510 650C255 650 213 649 208 648C201.138 645.713 191.96 642.94 188 637C184.547 631.8199999999999 180.791 624.5129999999999 178 618V182C182.49 171.523 187.24 159.587 198 156C201 155 206 153 209 152C214 151 248 150 510 150C791.428 150 795.556 147.186 822 156C832.816 159.605 837.47 171.43 842 182V618C837.51 628.477 832.76 640.413 822 644C819 645 814 647 811 648C806 649 773 650 510 650zM390 566C437.722 566 467.13 539.825 488 512C498.185 498.42 505.055 480.727 509 461C510 452 510 439 510 358V264C503.905 254.858 498.043 241.68 487 238L475 234C457.906 230.581 446.375 238.625 438 247C426.408 258.592 426 270.189 426 296V316H344V296C344 257.923 337.9340000000001 241.483 308 234C303 233 300 233 295 234L283 238C272.15 241.616 265.98 255.03 260 264V358C260 439 260 452 261 461C272.1720000000001 516.86 305.86 550.465 360 564C364 565 370 566 372 566H390zM760 264C739.334 233.001 742.766 233 681 233C620.382 233 633.367 232.8160000000001 597 251C582.688 258.155 570.13 276.7380000000001 563 291C555.93 305.1420000000001 552 315.8250000000001 552 338C552 373.573 564.852 393.852 583 412C600.62 429.62 620.82 441 655 441H672L676 440V482C676 523.668 671.722 536.722 688 553C695.638 560.6379999999999 703.24 567 718 567C742.21 567 750.048 550.929 760 536V264zM426 452C417.832 466.294 408.926 483 387 483C361.54 483 353.435 468.513 344 452V400H426V452zM656 358C644.88 358 635 348.935 635 338C635 321.929 645.293 317 664 317H676V330C676 348.6230000000001 674.828 350.586 664 356C662 357 658 358 656 358z" />
    <glyph glyph-name="adjustments"
      unicode="&#xEA03;"
      horiz-adv-x="1010" d="M262 775C284.703 775 295.336 757.991 301 741C302 738 302 710 302 669V601C327.275 592.575 346.255 576.6600000000001 361 557C375.623 537.5029999999999 384 518.395 384 484C384 428.594 358.465 393.732 321 375C313.9 371.4500000000001 309.081 368.36 302 366V215C302 117 302 62 301 59C294.996 40.9880000000001 284.855 26 260 26C234.811 26 225.173 40.482 219 59C218 62 218 117 218 215V366C193.238 374.254 172.52 391.64 158 411C143.81 429.92 136 450.277 136 484C136 527.4010000000001 150.91 550.91 173 573C182.306 582.306 195.176 591.87 208 597L218 601V669C218 710 218 738 219 741C225.379 760.137 236.626 775 262 775zM512 775C534.703 775 545.336 757.991 551 741C552 737 552 670 552 544V351C577.275 342.5750000000001 596.255 326.66 611 307C625.623 287.5030000000001 634 268.395 634 234C634 178.5940000000001 608.465 143.732 571 125C563.9 121.4500000000001 559.081 118.36 552 116V90C552 53.1130000000001 549.705 40.352 527 29C521 26 520 26 510 26C495.48 26 488.213 29.787 481 37C467.513 50.487 468 59.063 468 90V116C443.238 124.254 422.52 141.64 408 161C393.81 179.92 386 200.2770000000001 386 234C386 277.401 400.9100000000001 300.91 423 323C432.306 332.3060000000001 445.176 341.87 458 347L468 351V544C468 670 468 737 469 741C475.379 760.137 486.626 775 512 775zM718 731C718 756.867 735.827 775 762 775C785.736 775 802 754.283 802 731V726C827.275 717.575 846.255 701.66 861 682C875.856 662.192 884 643.05 884 608C884 553.485 857.878 518.439 821 500C813.9 496.45 809.081 493.36 802 491V277C802 137 802 63 801 59C794.996 40.9880000000001 784.855 26 760 26C734.811 26 725.173 40.482 719 59C718 63 718 137 718 277V491C693.238 499.254 672.52 516.64 658 536C643.74 555.014 636 576.052 636 610C636 652.741 651.2 676.2 673 698C682.306 707.306 695.176 716.87 708 722L718 726V731zM801 609C801 633.326 783.273 650 759 650C757 650 753 649 751 649C736.59 649 719 628.646 719 614V602C719 582.475 739.406 568 760 568C785.56 568 801 584.283 801 609zM301 484C301 508.326 283.273 525 259 525C257 525 253 524 251 524C236.59 524 219 503.646 219 489V477C219 457.975 240.025 442 260 442C284.64 442 301 459.751 301 484zM509 275C507 275 503 274 501 274C486.59 274 469 253.646 469 239V227C469 207.975 490.025 192 510 192C535.137 192 551 209.335 551 234C551 258.746 533.48 275 509 275z" />
    <glyph glyph-name="alarm"
      unicode="&#xEA04;"
      horiz-adv-x="1010" d="M302 775C317.425 775 326.324 766.6759999999999 334 759C340.478 752.5219999999999 342 748.063 342 734C342 719.92 338.54 711.54 332 705C329.129 702.129 209.681 614.56 205 613C194.917 609.639 178.927 605.7149999999999 168 613C162.238 616.8399999999999 151.252 625.2429999999999 149 632C142.865 650.404 146.84 668.84 158 680C161.202 683.202 278.004 768.002 282 770C287.924 772.962 292.783 775 302 775zM678 734C678 760.112 694.425 775 720 775C727 775 730 773 735 771C738 769 768 749 800 726C843.047 695.06 858.01 685.984 870 668C876.534 658.198 874.813 643.44 871 632C866.583 618.748 845.62 605.076 826 609C807.185 613.704 793.358 627.193 751 658C718 682 690 703 688 705C681.509 711.491 678 719.996 678 734zM508 692C598.853 692 667.376 660.3 719 619C731.732 608.815 763.118 576.835 773 563C813.685 506.04 843 448.599 843 351C843 277.3 818.807 232.612 794 183C786.578 168.156 775.7860000000001 156.943 765 144C746.907 122.29 724.7 100.8 701 85L680 71C666.548 62.031 652.419 56.608 637 50C597.46 33.055 567.39 26 510 26C444.534 26 406.406 37.797 362 60C356 63 346 67 340 71L319 85C296.2200000000001 100.187 272.95 121.812 256 143C252 148 245 157 240 163C228.055 177.335 221.525 193.3300000000001 212 210C199.612 231.678 189.672 257.9700000000001 185 286C181.405 307.5700000000001 177 319.3880000000001 177 350C177 400.046 183.296 427.534 194 465C204.233 500.816 223.542 529.759 243 557C276.454 603.836 323.974 643.19 381 666C411.53 678.212 450.099 691 491 691C494 691 502 692 508 692zM509 608C452.57 608 413.656 591.394 378 570C329.447 540.8679999999999 292.4940000000001 495.482 273 437C267.115 421.307 265.2080000000001 404.04 262 388C261 383 261 370 261 358C261 308.1950000000001 272.0830000000001 280.8060000000001 287 246C305.105 203.755 337.839 173.107 374 149C399.65 131.9 432.39 117.23 469 112C476 111 488 109 496 109H524C543.52 109 560.809 113.374 577 118C602.538 125.297 626.365 136.62 647 149C652 152 660 160 666 164C678.737 172.492 693.77 189.77 704 200C719.498 215.4980000000001 734.494 245.735 743 267C753.96 294.403 759 319.589 759 358C759 425.247 738.193 468.53 710 508C693.785 530.701 672.81 549.793 650 565C613.343 589.4390000000001 570.13 608 509 608zM510 525C485.849 525 475.088 509.265 469 491C468 488 468 461 468 421C468 382 468 354 469 351C474.38 334.858 482.692 324.1230000000001 498 318H604C622.151 324.05 635 336.99 635 361C635 381.98 617.58 392.24 604 400H552V443C552 481.59 552.227 486.32 547 502C542.719 514.845 526.815 525 510 525z" />
    <glyph glyph-name="alert-circle"
      unicode="&#xEA05;"
      horiz-adv-x="1010" d="M518 816C572.269 816 607.844 805.045 650 793C676.847 785.33 706.197 769.535 728 755C734 751 745 745 752 740C780.122 719.913 807.295 693.49 830 667C875.205 614.26 904.582 551.09 921 469C926.277 442.611 926 432.576 926 400C926 322.915 909.682 261.192 881 211C877 204 872 192 868 186C852.258 162.387 836.235 137.235 816 117L793 94C772.79 73.79 747.842 57.895 724 42C718 38 706 33 699 29C656.655 4.803 606.866 -6.59 548 -15C541 -16 525 -16 510 -16C366.081 -16 276.3590000000001 44.64 204 117C190.573 130.427 177.435 148.348 167 164C124.516 227.727 93 304.861 93 412C93 442.781 96.97 460.87 103 488C125.691 590.112 175.576 662.208 243 720C265.945 739.667 288.82 755.91 317 770C357.559 790.28 404.55 806.364 458 814C465 815 476 816 483 816H518zM508 733C498 733 486 732 480 732C445.876 732 414.148 719.05 387 710C359.568 700.856 326.9220000000001 678.691 306 663C275.306 639.98 248.682 608.523 227 576C218.048 562.571 207.325 541.976 202 526C200 520 195 510 193 503C184.175 472.112 177 440.455 177 400C177 358.895 182.469 326.749 194 296C206.502 262.6620000000001 218.494 231.6320000000001 239 206C249.21 193.237 254.906 186.312 266 173C276.0950000000001 160.886 294.086 145.936 306 137C329.615 119.29 364.361 99.702 394 87C401 84 413 82 419 80C432.854 75.382 451.407 72.5990000000001 467 70C473 69 488 67 500 67C535.335 67 560.567 68.162 588 76C595 78 606 81 613 83S630 90 636 92C660.179 100.06 685.883 114.506 704 129C727.81 148.049 753.273 169.031 772 194C789.798 217.73 810.505 254.8450000000001 823 284C826 291 828 303 830 309C840.242 339.727 842 356.197 842 400C842 444.112 840.332 460.005 830 491C828 497 826 509 823 516C809.96 546.428 790.923 580.1030000000001 773 604C749.98 634.694 718.523 661.318 686 683C672.571 691.952 651.976 702.675 636 708C630 710 620 715 613 717C581.318 726.052 549.749 733 508 733zM512 608C534.168 608 544.496 592.512 550 576C551 571 552 559 552 484C552 424 552 396 551 392C544.959 373.876 536.45 363.862 517 359C490.743 353.749 475.46 372.6180000000001 469 392C468 396 468 424 468 484C468 558 468 571 469 576C473.152 588.4580000000001 478.798 592.798 487 601C492.78 606.78 499.658 608 512 608zM512 275C487.158 275 474.076 260.307 469 240C464.386 216.93 479.567 203.9550000000001 493 195C498 193 501 192 508 192C534.15 192 552 207.5560000000001 552 233C552 252.764 540.656 264.1720000000001 527 271C521 274 519 275 512 275z" />
    <glyph glyph-name="alert-triangle"
      unicode="&#xEA06;"
      horiz-adv-x="1010" d="M508 818C563.386 818 598.068 788.886 619 754C634.577 728.04 904.693 261.6120000000001 918 235C924.652 221.694 925 214.2000000000001 925 192C925 141.04 903.451 112.088 874 90C860.403 79.803 842.976 72.995 823 69C815 68 780 67 509 67C236 67 203 68 196 69C135.622 81.0750000000001 93 123.586 93 196C93 219.963 99.464 232.928 108 250C108.083 250.165 406.993 763.988 407 764C413.665 775.107 427.904 789.343 439 796C457.02 806.813 478.581 818 508 818zM515 734H504C496.24 734 484.625 726.625 480 722C472.12 714.12 184.16 212.24 180 206C177 201 177 199 177 190C177 168.735 191.042 157.3200000000001 207 152C212 151 245 150 509 150C705 150 807 150 810 151C825.843 158.92 848.593 171.63 842 198C839.872 210.7670000000001 544.6890000000001 716.311 539 722C534.01 726.99 523.65 734 515 734zM509 567C532.466 567 544.995 551.015 551 533C552 530 552 513 552 484C552 444.207 552.282 438.848 547 423C542.719 410.155 526.815 400 510 400C485.452 400 475.161 415.517 469 434C468 437 468 458 468 484C468 513 468 530 469 533C474.66 549.981 486.697 567 509 567zM509 317C485.564 317 463.687 294.564 469 268C473.813 248.751 485.473 234 510 234C534.6 234 546.07 248.28 551 268C556.251 294.257 537.382 309.54 518 316C515 317 511 317 509 317z" />
    <glyph glyph-name="align-center"
      unicode="&#xEA07;"
      horiz-adv-x="1010" d="M509 692C733 692 847 692 851 691C869.012 684.996 884 674.855 884 650C884 624.8109999999999 869.518 615.173 851 609C847 608 733 608 510 608S173 608 169 609C150.988 615.004 136 625.145 136 650C136 664.52 139.787 671.787 147 679C151.764 683.764 161.085 691 168 691C170 691 322 692 509 692zM510 442C659 442 681 442 686 441C703.246 435.251 718 423.876 718 400C718 375.616 704.007 365.002 686 359C681 358 658 358 510 358S339 358 334 359C316.754 364.749 302 376.124 302 400C302 424.142 315.142 434.0470000000001 333 440C337 441 366 442 510 442zM509 192C311 192 254 192 250 191C233.305 185.435 213.908 168.457 219 143C223.598 124.607 234.573 114.809 252 109C256 108 326 108 510 108C692 108 764 108 768 109C776.563 111.854 782.813 113.813 789 120C798.387 129.387 808.02 152.47 797 169C792.778 175.332 786.672 184.442 779 187C776 188 771 190 768 191C764 192 692 192 509 192z" />
    <glyph glyph-name="align-justified"
      unicode="&#xEA08;"
      horiz-adv-x="1010" d="M509 692C733 692 847 692 851 691C869.012 684.996 884 674.855 884 650C884 624.8109999999999 869.518 615.173 851 609C847 608 733 608 510 608S173 608 169 609C150.988 615.004 136 625.145 136 650C136 664.52 139.787 671.787 147 679C151.764 683.764 161.085 691 168 691C170 691 322 692 509 692zM509 442C733 442 847 442 851 441C869.012 434.996 884 424.855 884 400C884 374.8110000000001 869.518 365.173 851 359C847 358 733 358 510 358S173 358 169 359C150.988 365.004 136 375.145 136 400C136 414.52 139.787 421.787 147 429C151.764 433.764 161.085 441 168 441C170 441 322 442 509 442zM427 192C287 192 170 191 168 191C155.41 191 143.796 176.593 139 167C136 161 136 160 136 150C136 124.811 150.482 115.173 169 109C173 108 260 108 427 108C648 108 681 108 686 109C703.246 114.749 718 126.124 718 150C718 174.384 704.007 184.9980000000001 686 191C681 192 649 192 427 192z" />
    <glyph glyph-name="align-left"
      unicode="&#xEA09;"
      horiz-adv-x="1010" d="M509 692C733 692 847 692 851 691C869.012 684.996 884 674.855 884 650C884 624.8109999999999 869.518 615.173 851 609C847 608 733 608 510 608S173 608 169 609C150.988 615.004 136 625.145 136 650C136 664.52 139.787 671.787 147 679C151.764 683.764 161.085 691 168 691C170 691 322 692 509 692zM384 442C523 442 597 442 601 441C619.012 434.996 634 424.855 634 400C634 374.8110000000001 619.518 365.173 601 359C597 358 523 358 385 358S173 358 169 359C150.988 365.004 136 375.145 136 400C136 414.52 139.787 421.787 147 429C151.764 433.764 161.085 441 168 441C170 441 268 442 384 442zM468 192C304 192 170 191 168 191C155.41 191 143.796 176.593 139 167C136 161 136 160 136 150C136 124.811 150.482 115.173 169 109C173 108 274 108 469 108C682 108 764 108 768 109C776.563 111.854 782.813 113.813 789 120C798.387 129.387 808.02 152.47 797 169C792.778 175.332 786.672 184.442 779 187C776 188 771 190 768 191C764 192 682 192 468 192z" />
    <glyph glyph-name="align-right"
      unicode="&#xEA0A;"
      horiz-adv-x="1010" d="M509 692C733 692 847 692 851 691C869.012 684.996 884 674.855 884 650C884 624.8109999999999 869.518 615.173 851 609C847 608 733 608 510 608S173 608 169 609C150.988 615.004 136 625.145 136 650C136 664.52 139.787 671.787 147 679C151.764 683.764 161.085 691 168 691C170 691 322 692 509 692zM634 442C773 442 847 442 851 441C869.012 434.996 884 424.855 884 400C884 374.8110000000001 869.518 365.173 851 359C847 358 773 358 635 358S423 358 419 359C400.988 365.004 386 375.145 386 400C386 414.52 389.787 421.787 397 429C401.764 433.764 411.085 441 418 441C420 441 518 442 634 442zM551 192C320 192 254 192 250 191C233.305 185.435 213.908 168.457 219 143C223.598 124.607 234.573 114.809 252 109C256 108 337 108 551 108C746 108 847 108 851 109C869.012 115.004 884 125.145 884 150C884 175.189 869.518 184.827 851 191C847 192 747 192 551 192z" />
    <glyph glyph-name="archive"
      unicode="&#xEA0B;"
      horiz-adv-x="1010" d="M509 775C773 775 814 775 822 774C842.637 769.873 860.297 760.422 876 751C881 748 888 740 892 736C912.811 715.189 926 691.183 926 650C926 609.482 913.754 584.754 893 564C879.005 550.005 864.194 539.573 844 532V334C843 155 843 134 842 127C828.682 73.726 795.156 38.231 739 27C731 26 706 25 510 25C317 25 289 26 281 27C221.62 38.876 187.256 77.463 177 139C176 147 176 213 176 341V532C166.116 535.2950000000001 153.554 543.268 144 549C115.338 566.197 100.435 599.395 94 638C89.251 680.737 106.51 714.51 128 736C141.52 749.52 158.727 764.546 181 769C186 770 193 772 197 773C204 774 259 775 509 775zM177 650C177 627.47 190.455 615.8489999999999 208 610H812C829.077 615.692 843 627.62 843 650C843 672.53 829.545 684.1510000000001 812 690L512 691C259.2150000000001 691 213.46 694.23 199 687C187.518 681.259 177 667.062 177 650zM760 525H260V336C260 202 260 146 261 142C266.201 126.396 275.1840000000001 115.927 290 110H730C739.911 114.956 752.429 121.285 756 132C762.45 151.352 760 198.727 760 337V525zM510 442C437 442 420 441 416 440C397.763 433.92 386 424.282 386 400C386 375.6140000000001 398.438 365.187 417 359C422 358 436 358 510 358S598 358 603 359C621.45 365.15 634 375.4360000000001 634 400C634 424.386 621.562 434.813 603 441C598 442 585 442 510 442z" />
    <glyph glyph-name="arrow-back"
      unicode="&#xEA0C;"
      horiz-adv-x="1010" d="M658 650C626.79 650 627.604 651.302 615 645C603.388 639.194 590.145 621.273 594 602C598.139 585.447 605.83 578.114 618 570L624 568L657 567C727.064 564.498 763.701 546.597 788 498C796.094 481.811 801 466.53 801 442C801 400.743 786.643 374.6430000000001 765 353C746.537 334.5370000000001 726.852 324.9700000000001 697 319C689 318 665 317 504 317H320L370 367C412 409 420 418 422 423C425.433 433.2970000000001 429.356 449.966 422 461C417.854 469.294 409.259 475.161 402 480C397 483 396 482 385 482S374 483 368 480C351.412 470.047 186.636 303.059 180 292C177 286 178 286 178 275S177 264 180 258C189.953 241.4120000000001 356.9410000000001 76.636 368 70C374 67 374 68 385 68C401.474 68 404.629 69.629 413 78C420.525 85.525 429.352 98.2430000000001 426 115L422 127C420 132 412 141 370 183L320 233H509L698 234L710 236C768.502 244.357 812.476 277.8440000000001 843 316C867.643 346.804 885 387.86 885 442C885 468.318 879.937 486.219 874 507C869.233 523.683 860.524 544.094 851 556C837.639 572.701 825.267 590.05 808 603C804 606 796 612 791 616C779.365 625.308 758.08 634.405 742 639C713.055 647.27 699.437 650 658 650z" />
    <glyph glyph-name="arrow-bar-down"
      unicode="&#xEA0D;"
      horiz-adv-x="1010" d="M166 692C149.29 700.355 135 710.9200000000001 135 736C135 752.796 146.732 763.155 157 770C160 772 165 773 167 774S308 775 512 775L854 774C868.495 767.788 885 755.6800000000001 885 736C885 710.9200000000001 870.71 700.355 854 692H166zM510 525C485.849 525 475.088 509.265 469 491C468 488 468 430 468 327V168L417 218C370 265 366 268 360 271C356 273 351 275 346 275C324.116 275 313.435 265.872 306 251C303 245 302 244 302 234S302 222 305 216C312.532 200.935 472.859 46.141 487 32C491.415 27.585 501.886 25 510 25C518.116 25 528.581 27.581 533 32C547.14 46.14 707.468 200.935 715 216C718 222 718 224 718 234C718 247.352 715.222 252.778 709 259C700.432 267.568 691.384 275 674 275C669 275 664 273 660 271C654 268 650 265 603 218L552 168V327C552 430 552 488 551 491C545.025 508.923 534.097 525 510 525z" />
    <glyph glyph-name="arrow-bar-left"
      unicode="&#xEA0E;"
      horiz-adv-x="1010" d="M885 60C878.846 41.5360000000001 868.03 25 844 25C822.0889999999999 25 808.544 38.367 803 55C801 60 802 80 802 400S801 740 803 745C808.514 761.54 821.126 775 843 775C867.823 775 878.669 758.994 885 740V60zM346 608H337C334 608 330 606 326 604C312.305 597.152 262.01 543.01 141 422C137.118 418.118 135 407.267 135 400C135 392.723 137.117 381.8830000000001 141 378C142.09 376.91 310.4550000000001 203.7719999999999 324 197C331.2440000000001 194.585 332.3090000000001 192 343 192C368.288 192 385 209.114 385 234C385 241.7820000000001 381.587 249.8250000000001 379 255C378 257 354 281 327 308L278 358H438C579 358 599 359 604 360C621.173 365.725 634 376.6140000000001 634 400C634 424.03 621.99 434.003 604 440C599 441 579 442 438 442H278L327 492C360.933 525.933 378.016 539.048 383 554C384 558 385 562 385 566C385 588.9590000000001 368.512 608 346 608z" />
    <glyph glyph-name="arrow-bar-right"
      unicode="&#xEA0F;"
      horiz-adv-x="1010" d="M135 740C141.174 758.521 151.847 775 176 775C197.911 775 211.456 761.633 217 745C219 740 218 720 218 400S219 60 217 55C211.448 38.346 197.65 25 176 25C151.97 25 141.154 41.5360000000001 135 60V740zM680 608H671C650.153 608 635 587.0799999999999 635 566C635 558.2180000000001 638.413 550.175 641 545C642 543 666 519 693 492L742 442H582C441 442 421 441 416 440C398.827 434.275 386 423.386 386 400C386 375.9700000000001 398.01 365.997 416 360C421 359 441 358 582 358H742L693 308C659.067 274.067 641.984 260.952 637 246C636 242 635 238 635 234C635 209.271 652.035 192 677 192C687.66 192 688.766 194.5890000000001 696 197C709.545 203.7720000000001 877.91 376.91 879 378C882.882 381.882 885 392.733 885 400C885 407.277 882.883 418.117 879 422C877.91 423.09 709.545 596.2280000000001 696 603C690.12 604.96 687.652 608 680 608z" />
    <glyph glyph-name="arrow-bar-up"
      unicode="&#xEA10;"
      horiz-adv-x="1010" d="M346 525C320.308 525 302 540.4300000000001 302 566C302 576 302 578 305 584C312.532 599.065 472.859 753.859 487 768C491.56 772.56 501.29 775 510 775C518.731 775 528.427 772.573 533 768C547.14 753.86 707.468 599.065 715 584C718 578 718 576 718 566C718 552.648 715.222 547.222 709 541C700.432 532.432 691.384 525 674 525C669 525 664 527 660 529C654 532 650 535 603 582L552 632V473C552 370 552 312 551 309C545.025 291.077 534.097 275 510 275C485.452 275 475.161 290.5170000000001 469 309C468 312 468 370 468 473V632L417 582C370 535 366 532 360 529C356 527 351 525 346 525zM512 108C237 108 167 108 164 107C148.031 99.016 135 88.102 135 64C135 43.72 151.393 32.26 166 26H854C868.407 33.203 885 43.004 885 64C885 88.442 870.454 99.773 854 108H512z" />
    <glyph glyph-name="arrow-down-circle"
      unicode="&#xEA11;"
      horiz-adv-x="1010" d="M518 816C530 816 545 816 553 815C677.367 799.454 765.015 742.816 830 667C875.205 614.26 904.582 551.09 921 469C926.277 442.611 926 432.576 926 400C926 324.03 909.781 267.562 884 216C864.868 177.736 844.6610000000001 145.6610000000001 816 117L793 94C772.933 73.933 750.076 57.33 725 43C666.595 9.625 602.028 -16 510 -16C471.821 -16 449.486 -15.425 420 -7C384.66 3.098 357.568 10.216 326 26C287.736 45.132 255.661 65.3389999999999 227 94L204 117C190.573 130.427 177.435 148.348 167 164C125.575 226.137 94 296.337 94 400C94 460.342 104.183 499.549 119 544C121 550 124 560 127 566L140 592C170.252 652.504 214.535 700.812 268 739C316.793 773.852 374.601 801.657 447 812C459.05 813.722 477.947 816 490 816H518zM508 733C497 733 484 732 479 732C445.765 732 413.549 718.85 387 710C360 701 326.705 678.528 306 663C275.306 639.98 248.682 608.523 227 576C208.395 548.094 197.195 515.685 187 480C179.855 454.994 177 431.92 177 400C177 358.342 183.768 329.314 193 297C195 290 200 280 202 274C215.732 232.802 241.187 202.775 266 173C276.0950000000001 160.886 294.086 145.936 306 137C329.264 119.552 364.57 99.612 394 87C401 84 413 82 419 80C432.854 75.382 451.407 72.5990000000001 467 70C473 69 488 67 500 67C556.137 67 597.623 75.85 638 92C716.753 123.501 770.0889999999999 180.664 809 252C814 262 820 277 823 284S828 303 830 309C834.618 322.8540000000001 837.401 341.4070000000001 840 357C841 363 843 378 843 390C843 436.9 838.86 469.707 826 504C811.55 542.533 797.363 573.796 774 603C749.429 633.7139999999999 719.59 660.606 686 683C657.835 701.7760000000001 626.066 712.6949999999999 590 723C564.121 730.395 541.37 733 508 733zM512 608C485.324 608 475.676 594.027 469 574C468 571 468 526 468 452V335L418 385C376 427 367 435 362 437C351.703 440.433 335.034 444.356 324 437C315.706 432.854 309.839 424.259 305 417C302 412 302 411 302 400S302 388 305 382C308 377 319 367 395 290L486 199C491.099 193.901 500.088 192 510 192C519.944 192 528.883 193.8830000000001 534 199L625 290C701 367 712 377 715 382C718 388 718 389 718 400C718 416.021 714.776 420.224 707 428C699.475 435.525 686.757 444.352 670 441L658 437C653 435 644 427 602 385L552 335V452C552 526 552 571 551 574C545.897 589.307 539.087 596.942 527 605C522 607 520 608 512 608z" />
    <glyph glyph-name="arrow-down-left-circle"
      unicode="&#xEA12;"
      horiz-adv-x="1010" d="M507 817C599.348 817 667.328 789.527 726 756C766.528 732.84 800.085 701.9010000000001 830 667C875.205 614.26 904.582 551.09 921 469C926.277 442.611 926 432.576 926 400C926 305.826 899.365 241.14 865 181C861 174 853 164 849 158C831.15 131.226 803.817 101.68 779 81C748.684 55.736 712.046 31.018 672 16C652.987 8.87 634.298 0.732 613 -4C579.033 -11.548 552.751 -16 510 -16C380.255 -16 297.082 33.93 227 94C205.473 112.452 186.437 134.845 171 158C160.675 173.4880000000001 148.953 189.0940000000001 140 207C112.223 262.555 93 327.8690000000001 93 412C93 442.781 96.97 460.87 103 488C125.691 590.112 175.576 662.208 243 720C265.945 739.667 288.82 755.91 317 770C357.559 790.28 404.55 806.364 458 814C465 815 476 816 483 816S501 817 507 817zM508 733C498 733 485 732 480 732C466.929 732 450.852 727.142 438 725C408.021 720.004 387.7 710.85 362 698C323.002 676.729 290.598 656.197 263 624C247.112 605.4649999999999 231.92 587.84 221 566L212 548C191.577 507.153 177 460.815 177 400C177 358.895 182.469 326.749 194 296C206.502 262.6620000000001 218.494 231.6320000000001 239 206C249.21 193.237 254.906 186.312 266 173C276.0950000000001 160.886 294.086 145.936 306 137C329.615 119.29 364.361 99.702 394 87C401 84 413 82 419 80C432.854 75.382 451.407 72.5990000000001 467 70C473 69 488 67 500 67C535.335 67 560.567 68.162 588 76C595 78 606 81 613 83C630.174 87.907 642.822 95.066 659 102C666 105 674 110 678 113S691 120 696 123S707 132 710 134C747.083 158.722 776.623 197.038 800 236C812.428 256.714 821.63 283.89 830 309C840.242 339.727 842 356.197 842 400C842 444.112 840.332 460.005 830 491C828 497 826 509 823 516C809.96 546.428 790.923 580.1030000000001 773 604C749.98 634.694 718.523 661.318 686 683C672.571 691.952 651.976 702.675 636 708C630 710 620 715 613 717C581.318 726.052 549.749 733 508 733zM384 567C360.985 567 349.926 549.7760000000001 344 532C343 528 343 491 343 396L344 266C349.9100000000001 248.273 357.938 240.02 376 234L506 233C601 233 638 233 642 234L654 238C669.78 243.26 685.463 273.807 672 294C667.778 300.332 661.672 309.442 654 312C634.436 318.521 629.636 317 562 317H487L578 408C658 488 669 501 672 506C685.366 526.05 669.566 556.812 654 562C643.606 565.4649999999999 626.99 569.326 616 562C611 559 598 548 518 468L427 377V452C427 504 427 529 426 533C419.818 551.5450000000001 408.1600000000001 567 384 567z" />
    <glyph glyph-name="arrow-down-left"
      unicode="&#xEA13;"
      horiz-adv-x="1010" d="M718 650C709.462 650 701.565 646.783 696 644C694 643 614 564 518 468L344 294V429C344 504 343 567 343 571C343 592.2660000000001 323.102 608 302 608C281.097 608 266.222 595.885 262 579C260 572 260 570 260 377V182C263.683 174.635 264.972 169.028 272 162S284.633 153.684 292 150H487C679 150 683 150 689 152C706.113 156.278 718 170.365 718 192C718 217.472 701.558 226.48 682 233C678 234 616 234 540 234H404L578 408C690 520 752 584 754 587C756.62 592.24 760 601.19 760 609C760 633.005 741.994 650 718 650z" />
    <glyph glyph-name="arrow-down-right-circle"
      unicode="&#xEA14;"
      horiz-adv-x="1010" d="M507 817C599.348 817 667.328 789.527 726 756C766.528 732.84 800.085 701.9010000000001 830 667C875.205 614.26 904.582 551.09 921 469C926.277 442.611 926 432.576 926 400C926 305.826 899.365 241.14 865 181C861 174 853 164 849 158C831.15 131.226 803.817 101.68 779 81C748.684 55.736 712.046 31.018 672 16C652.987 8.87 634.298 0.732 613 -4C579.033 -11.548 552.751 -16 510 -16C380.255 -16 297.082 33.93 227 94C205.473 112.452 186.437 134.845 171 158C160.675 173.4880000000001 148.953 189.0940000000001 140 207C112.223 262.555 93 327.8690000000001 93 412C93 442.781 96.97 460.87 103 488C125.691 590.112 175.576 662.208 243 720C265.945 739.667 288.82 755.91 317 770C357.559 790.28 404.55 806.364 458 814C465 815 476 816 483 816S501 817 507 817zM508 733C498 733 485 732 480 732C466.929 732 450.852 727.142 438 725C408.021 720.004 387.7 710.85 362 698C323.002 676.729 290.598 656.197 263 624C247.112 605.4649999999999 231.92 587.84 221 566L212 548C191.577 507.153 177 460.815 177 400C177 358.895 182.469 326.749 194 296C206.502 262.6620000000001 218.494 231.6320000000001 239 206C249.21 193.237 254.906 186.312 266 173C276.0950000000001 160.886 294.086 145.936 306 137C329.615 119.29 364.361 99.702 394 87C401 84 413 82 419 80C432.854 75.382 451.407 72.5990000000001 467 70C473 69 488 67 500 67C535.335 67 560.567 68.162 588 76C595 78 606 81 613 83C630.174 87.907 642.822 95.066 659 102C666 105 674 110 678 113S691 120 696 123S707 132 710 134C747.083 158.722 776.623 197.038 800 236C812.428 256.714 821.63 283.89 830 309C840.242 339.727 842 356.197 842 400C842 444.112 840.332 460.005 830 491C828 497 826 509 823 516C809.96 546.428 790.923 580.1030000000001 773 604C749.98 634.694 718.523 661.318 686 683C672.571 691.952 651.976 702.675 636 708C630 710 620 715 613 717C581.318 726.052 549.749 733 508 733zM384 567C360.67 567 338.697 544.512 344 518C345 514 346 509 348 506C351 501 362 488 442 408L533 317H458C406 317 381 317 377 316C359.325 310.108 338.627 294.865 344 268C347.594 253.625 355.192 245.2050000000001 366 238C369 236 375 235 378 234C382 233 419 233 514 233L644 234C661.727 239.91 669.98 247.938 676 266L677 396C677 491 677 528 676 532C671.936 544.193 666.16 557.946 654 562C643.606 565.4649999999999 626.99 569.326 616 562C605.392 554.928 598.432 546.294 594 533C593 529 593 504 593 452V377L501 468C423 546 409 560 404 562C398.193 563.9359999999999 391.477 567 384 567z" />
    <glyph glyph-name="arrow-down-right"
      unicode="&#xEA15;"
      horiz-adv-x="1010" d="M301 650C277.4700000000001 650 260 632.254 260 609C260 601.204 263.379 592.242 266 587C268 584 331 520 442 408L616 234H480C404 234 342 234 338 233C318.432 226.478 302 217.904 302 192C302 170.732 314.1430000000001 156.214 331 152C337 150 341 150 533 150H728C735.365 153.683 740.972 154.972 748 162S756.316 174.6330000000001 760 182V377C760 569 760 573 758 579C753.774 595.9010000000001 739.32 608 718 608C697.936 608 687.901 597.804 681 584C679 580 677 575 677 571S676 504 676 429V294L502 468C390 580 326 642 323 644C317.454 646.7719999999999 309.527 650 301 650z" />
    <glyph glyph-name="arrow-down"
      unicode="&#xEA16;"
      horiz-adv-x="1010" d="M512 733C485.324 733 475.676 719.027 469 699C468 696 468 610 468 452V210L376 301C310 367 283 393 280 395C275.018 397.491 267.86 400 260 400C236.491 400 223.821 384.283 219 365C217.246 356.23 219.245 344.6330000000001 223 339C228.16 328.682 478.597 79.0419999999999 492 71C501.09 64.9400000000001 518.698 64.799 528 71C541.403 79.042 791.841 328.682 797 339C800.488 345.976 802.915 355.425 801 365L797 377C792.719 389.8450000000001 776.815 400 760 400C752.139 400 744.997 397.499 740 395C737 393 710 367 644 301L552 210V452C552 610 552 695 551 699C545.897 714.307 539.087 721.942 527 730C522 732 520 733 512 733z" />
    <glyph glyph-name="arrow-forward"
      unicode="&#xEA17;"
      horiz-adv-x="1010" d="M360 650C288.53 650 251.882 632.912 212 603C194.798 590.0989999999999 182.418 572.773 169 556C147.663 529.328 135 487.873 135 442C135 362.25 172.98 311.0170000000001 218 275C241.775 255.98 273.272 241.247 310 236L322 234L511 233H700L650 183C608 141 600 132 598 127C594.567 116.703 590.644 100.034 598 89C602.146 80.706 610.741 74.8390000000001 618 70C623 67 624 68 635 68S646 67 652 70C668.588 79.953 833.364 246.9410000000001 840 258C843 264 842 264 842 275S843 286 840 292C830.047 308.588 663.059 473.364 652 480C646 483 646 482 635 482C618.526 482 615.371 480.371 607 472C599.475 464.475 590.648 451.757 594 435L598 423C600 418 608 409 650 367L700 317H516C358 317 331 317 323 318C279.83 326.634 249.515 350.9700000000001 232 386C223.08 403.84 219 415.207 219 442C219 459.788 222.95 470.797 226 483C233.853 514.4100000000001 261.48 539.74 288 553C313.74 565.87 318.276 565.402 363 567L396 568C412.505 573.502 421.484 583.938 426 602C427 607 427 610 426 615L422 627C418.588 637.235 405.964 645.679 396 649C392 650 383 650 360 650z" />
    <glyph glyph-name="arrow-left-circle"
      unicode="&#xEA18;"
      horiz-adv-x="1010" d="M259 567C282.514 567 296.176 551.297 301 532C302.837 522.816 300.814 511.722 297 506C294 501 288 495 265 471L237 442H684L688 452C704.33 492.826 743.926 524 800 524C842.74 524 866.0550000000001 511.945 888 490C909.584 468.416 926 442.418 926 400C926 328.8110000000001 881.679 291.42 824 277C820 276 812 276 802 276C781.653 276 773.174 275.913 761 282C751.521 286.74 742.955 288.6960000000001 735 294C715.686 306.876 697.165 325.088 688 348L684 358H237L265 329C288 305 294 299 297 294C310.366 273.9500000000001 294.566 243.188 279 238C268.606 234.535 251.99 230.674 241 238C224.911 247.653 101.845 371.3880000000001 98 381C95.691 387.9260000000001 91.956 396.782 94 407C95 411 97 416 98 419C102.914 431.2850000000001 233.84 558.92 240 562C244.872 565.248 252.124 567 259 567zM806 441H796C769.343 441 746.523 396.477 770 373C777.775 365.225 786.244 359 802 359C823.009 359 831.37 371.055 840 384C842 389 842 391 842 400C842 420.453 834.746 424.254 825 434C821.358 437.642 812.398 441 806 441z" />
    <glyph glyph-name="arrow-left"
      unicode="&#xEA19;"
      horiz-adv-x="1010" d="M468 692C466 692 462 691 460 691S452 689 449 687C438.682 681.84 189.042 431.403 181 418C174.94 408.9100000000001 174.799 391.302 181 382C189.042 368.597 438.682 118.159 449 113C469.736 99.1760000000001 498.049 116.097 505 130C507.491 134.982 510 142.14 510 150C510 157.861 507.499 165.0030000000001 505 170C503 173 477 200 411 266L320 358H562C720 358 805 358 809 359C824.307 364.103 831.942 370.913 840 383C843 388 842 389 842 400C842 425.87 828.407 434.531 809 441C805 442 720 442 562 442H320L411 534C477 600 503 627 505 630C507.491 634.982 510 642.14 510 650C510 674.548 494.483 684.8389999999999 476 691C473 692 470 692 468 692z" />
    <glyph glyph-name="arrow-narrow-down"
      unicode="&#xEA1A;"
      horiz-adv-x="1010" d="M512 733C486.884 733 475.226 719.677 469 701C468 696 468 665 468 453V210L418 260C376 302 367 310 362 312C351.655 315.448 335.312 319.5420000000001 324 312C312.635 306.317 302 293.706 302 277C302 265.288 304.2970000000001 259.4070000000001 308 252C310.204 247.593 479.225 78.665 492 71C501.09 64.9400000000001 518.698 64.799 528 71C538.044 77.026 708.799 246.598 714 257C717 264 718 264 718 275C718 290.81 712.714 297.2860000000001 705 305C696.897 313.103 685.774 319.155 670 316C666 315 661 313 658 312C653 310 644 302 602 260L552 210V453C552 687.138 554.737 685.788 546 712C543.617 719.1469999999999 533.009 725.994 527 730C522 732 520 733 512 733z" />
    <glyph glyph-name="arrow-narrow-left"
      unicode="&#xEA1B;"
      horiz-adv-x="1010" d="M386 608C373.451 608 369.405 605.703 362 602C357.593 599.796 188.665 430.775 181 418C174.94 408.9100000000001 174.799 391.302 181 382C188.665 369.225 357.593 200.204 362 198C369.332 194.334 375.37 192 387 192C410.377 192 421.212 207.848 426 227C427 232 427 235 426 240L422 252C420 257 412 266 370 308L320 358H563C775 358 806 358 811 359C828.76 364.92 842 375.125 842 400C842 425.24 829.57 434.81 811 441C806 442 775 442 563 442H320L370 492C412 534 420 543 422 548C425.448 558.345 429.542 574.688 422 586C416.077 597.846 403.6430000000001 608 386 608z" />
    <glyph glyph-name="arrow-narrow-right"
      unicode="&#xEA1C;"
      horiz-adv-x="1010" d="M636 608C618.373 608 612.555 602.5550000000001 604 594C597.504 587.504 591.206 573.97 594 560C595 556 597 551 598 548C600 543 608 534 650 492L700 442H457C222.862 442 224.212 444.737 198 436C190.853 433.617 184.006 423.009 180 417C177 412 178 411 178 400C178 375.03 190.55 366.15 209 360C214 359 242 358 457 358H700L650 308C608 266 600 257 598 252C594.552 241.655 590.458 225.312 598 214C602.146 205.706 610.741 199.8390000000001 618 195C623 192 624 192 635 192S646 192 652 195C657 198 668 209 745 285L836 376C841.099 381.0990000000001 843 390.088 843 400C843 409.944 841.117 418.883 836 424L745 515C668 592 657 602 652 605C647 607 644 608 636 608z" />
    <glyph glyph-name="arrow-narrow-up"
      unicode="&#xEA1D;"
      horiz-adv-x="1010" d="M513 733C503.451 733 498.868 733.58 492 729C479.225 721.335 310.204 552.407 308 548C304.334 540.668 302 534.63 302 523C302 505.844 312.316 493.842 324 488C335.176 480.55 350.967 484.322 362 488C367 490 376 498 418 540L468 590V347C468 112.862 465.263 114.212 474 88C476.383 80.853 486.991 74.006 493 70C498 67 499 68 510 68C535.87 68 544.531 81.593 551 101C552 105 552 190 552 348V590L602 540C644 498 653 490 658 488C669.512 484.163 681.621 482.54 695 487C701.955 489.318 710.583 500.165 714 507C717 513 718 514 718 525S718 536 715 542C712 547 701 558 625 635L534 726C530.014 729.986 520.256 733 513 733z" />
    <glyph glyph-name="arrow-right-circle"
      unicode="&#xEA1E;"
      horiz-adv-x="1010" d="M759 567C766.443 567 773.208 563.9300000000001 779 562C786.82 558.8720000000001 918.831 426.9220000000001 922 419C924.309 412.074 928.044 403.218 926 393C925 389 923 384 922 381C918.764 372.91 786.7529999999999 241.102 779 238C768.606 234.535 751.99 230.674 741 238C727.93 246.713 707.651 270.977 723 294C726 299 732 305 755 329L783 358H336L332 348C324.015 328.0370000000001 308.145 311.108 292 299C271.843 283.8830000000001 252.833 276 218 276C191.695 276 177.976 278.814 161 289C123.962 311.223 94 341.1180000000001 94 400C94 437.309 105.288 452.148 119 475C125.763 486.271 137.94 495.455 148 503C166.564 516.924 186.988 524 220 524C262.741 524 286.2 508.8 308 487C317.306 477.694 326.87 464.824 332 452L336 442H783L755 471C732 495 726 501 723 506C717.037 514.944 716.766 534.648 723 544C730.638 555.456 740.696 567 759 567zM222 441H212C192.475 441 178 420.594 178 400C178 385.48 181.787 378.213 189 371C194.4 365.6 203.253 359 212 359H224C250.644 359 273.497 403.503 250 427C244.12 432.88 233.2 441 222 441z" />
    <glyph glyph-name="arrow-right"
      unicode="&#xEA1F;"
      horiz-adv-x="1010" d="M554 691C528.346 691 510 675.86 510 650C510 642.139 512.501 634.9970000000001 515 630C517 627 543 600 609 534L700 442H458C300 442 215 442 211 441C195.693 435.897 188.058 429.087 180 417C177 412 178 411 178 400C178 374.13 191.593 365.4690000000001 211 359C215 358 300 358 458 358H700L609 266C543 200 517 173 515 170C512.509 165.018 510 157.86 510 150C510 132.922 520.104 117.299 533 113L545 109C554.592 107.082 564.02 109.51 571 113C581.318 118.16 830.9580000000001 368.597 839 382C845.06 391.09 845.201 408.698 839 418C831.21 430.981 580.5830000000001 681.7090000000001 574 685C568.77 687.615 562.588 691 554 691z" />
    <glyph glyph-name="arrow-up-circle"
      unicode="&#xEA20;"
      horiz-adv-x="1010" d="M518 816C530 816 545 816 553 815C677.367 799.454 765.015 742.816 830 667C875.205 614.26 904.582 551.09 921 469C926.277 442.611 926 432.576 926 400C926 324.03 909.781 267.562 884 216C864.868 177.736 844.6610000000001 145.6610000000001 816 117L793 94C772.933 73.933 750.076 57.33 725 43C666.595 9.625 602.028 -16 510 -16C471.821 -16 449.486 -15.425 420 -7C384.66 3.098 357.568 10.216 326 26C287.736 45.132 255.661 65.3389999999999 227 94L204 117C190.573 130.427 177.435 148.348 167 164C125.575 226.137 94 296.337 94 400C94 460.342 104.183 499.549 119 544C121 550 124 560 127 566L140 592C170.252 652.504 214.535 700.812 268 739C316.793 773.852 374.601 801.657 447 812C459.05 813.722 477.947 816 490 816H518zM508 733C497 733 484 732 479 732C445.765 732 413.549 718.85 387 710C360 701 326.705 678.528 306 663C275.306 639.98 248.682 608.523 227 576C208.395 548.094 197.195 515.685 187 480C179.855 454.994 177 431.92 177 400C177 358.342 183.768 329.314 193 297C195 290 200 280 202 274C215.732 232.802 241.187 202.775 266 173C276.0950000000001 160.886 294.086 145.936 306 137C329.264 119.552 364.57 99.612 394 87C401 84 413 82 419 80C432.854 75.382 451.407 72.5990000000001 467 70C473 69 488 67 500 67C556.137 67 597.623 75.85 638 92C716.753 123.501 770.0889999999999 180.664 809 252C814 262 820 277 823 284S828 303 830 309C834.618 322.8540000000001 837.401 341.4070000000001 840 357C841 363 843 378 843 390C843 436.9 838.86 469.707 826 504C811.55 542.533 797.363 573.796 774 603C749.429 633.7139999999999 719.59 660.606 686 683C657.835 701.7760000000001 626.066 712.6949999999999 590 723C564.121 730.395 541.37 733 508 733zM513 608C503.451 608 498.868 608.5799999999999 492 604C479.225 596.335 310.204 427.4070000000001 308 423C304.334 415.668 302 409.63 302 398C302 374.6230000000001 317.848 363.788 337 359C342 358 345 358 350 359L362 363C367 365 376 373 418 415L468 465V348C468 274 468 229 469 226C474.103 210.693 480.913 203.058 493 195C498 192 499 192 510 192C535.38 192 544.7 207.0990000000001 551 226C552 229 552 274 552 348V465L602 415C644 373 653 365 658 363C668.297 359.567 684.966 355.644 696 363C704.294 367.146 710.161 375.741 715 383C718 388 718 389 718 400S718 412 715 418C712 423 701 433 625 510L534 601C530.014 604.986 520.256 608 513 608z" />
    <glyph glyph-name="arrow-up-left-circle"
      unicode="&#xEA21;"
      horiz-adv-x="1010" d="M507 817C599.348 817 667.328 789.527 726 756C766.528 732.84 800.085 701.9010000000001 830 667C875.205 614.26 904.582 551.09 921 469C926.277 442.611 926 432.576 926 400C926 305.826 899.365 241.14 865 181C861 174 853 164 849 158C831.15 131.226 803.817 101.68 779 81C748.684 55.736 712.046 31.018 672 16C652.987 8.87 634.298 0.732 613 -4C579.033 -11.548 552.751 -16 510 -16C380.255 -16 297.082 33.93 227 94C205.473 112.452 186.437 134.845 171 158C160.675 173.4880000000001 148.953 189.0940000000001 140 207C112.223 262.555 93 327.8690000000001 93 412C93 442.781 96.97 460.87 103 488C125.691 590.112 175.576 662.208 243 720C265.945 739.667 288.82 755.91 317 770C357.559 790.28 404.55 806.364 458 814C465 815 476 816 483 816S501 817 507 817zM508 733C498 733 485 732 480 732C466.929 732 450.852 727.142 438 725C408.021 720.004 387.7 710.85 362 698C323.002 676.729 290.598 656.197 263 624C247.112 605.4649999999999 231.92 587.84 221 566L212 548C191.577 507.153 177 460.815 177 400C177 358.895 182.469 326.749 194 296C206.502 262.6620000000001 218.494 231.6320000000001 239 206C249.21 193.237 254.906 186.312 266 173C276.0950000000001 160.886 294.086 145.936 306 137C329.615 119.29 364.361 99.702 394 87C401 84 413 82 419 80C432.854 75.382 451.407 72.5990000000001 467 70C473 69 488 67 500 67C535.335 67 560.567 68.162 588 76C595 78 606 81 613 83C630.174 87.907 642.822 95.066 659 102C666 105 674 110 678 113S691 120 696 123S707 132 710 134C747.083 158.722 776.623 197.038 800 236C812.428 256.714 821.63 283.89 830 309C840.242 339.727 842 356.197 842 400C842 444.112 840.332 460.005 830 491C828 497 826 509 823 516C809.96 546.428 790.923 580.1030000000001 773 604C749.98 634.694 718.523 661.318 686 683C672.571 691.952 651.976 702.675 636 708C630 710 620 715 613 717C581.318 726.052 549.749 733 508 733zM509 567C399 567 379 566 374 565C357.933 559.645 350.451 552.352 345 536C344 531 343 514 343 401C343 309 343 271 344 267C349.892 249.3250000000001 365.135 228.627 392 234C410.903 238.726 419.98 248.9400000000001 426 267C427 271 427 296 427 348V423L518 332C598 252 611 241 616 238C630.69 228.207 655.28 236.28 664 245C673.387 254.387 683.02 277.4700000000001 672 294C669 299 658 312 578 392L487 483H562C629.447 483 634.615 481.538 654 488C669.78 493.26 685.463 523.807 672 544C667.778 550.332 661.672 559.442 654 562C651 563 646 565 643 566C639 567 600 567 509 567z" />
    <glyph glyph-name="arrow-up-left"
      unicode="&#xEA22;"
      horiz-adv-x="1010" d="M488 650H294C279.736 645.925 267.6 637.798 263 624L260 618V423C260 230 260 228 262 221C266.2 204.203 280.953 192 302 192C322.064 192 332.099 202.196 339 216C341 220 343 225 343 229S344 296 344 371V506L518 332C630 220 694 158 697 156C702.24 153.38 711.19 150 719 150C742.499 150 760 167.884 760 191C760 198.7960000000001 756.621 207.7580000000001 754 213C752 216 690 280 578 392L404 566H540C616 566 678 566 682 567C701.568 573.5219999999999 718 582.096 718 608C718 629.268 705.857 643.7860000000001 689 648C683 650 679 650 488 650z" />
    <glyph glyph-name="arrow-up-right-circle"
      unicode="&#xEA23;"
      horiz-adv-x="1010" d="M507 817C599.348 817 667.328 789.527 726 756C766.528 732.84 800.085 701.9010000000001 830 667C875.205 614.26 904.582 551.09 921 469C926.277 442.611 926 432.576 926 400C926 305.826 899.365 241.14 865 181C861 174 853 164 849 158C831.15 131.226 803.817 101.68 779 81C748.684 55.736 712.046 31.018 672 16C652.987 8.87 634.298 0.732 613 -4C579.033 -11.548 552.751 -16 510 -16C380.255 -16 297.082 33.93 227 94C205.473 112.452 186.437 134.845 171 158C160.675 173.4880000000001 148.953 189.0940000000001 140 207C112.223 262.555 93 327.8690000000001 93 412C93 442.781 96.97 460.87 103 488C125.691 590.112 175.576 662.208 243 720C265.945 739.667 288.82 755.91 317 770C357.559 790.28 404.55 806.364 458 814C465 815 476 816 483 816S501 817 507 817zM508 733C498 733 485 732 480 732C466.929 732 450.852 727.142 438 725C408.021 720.004 387.7 710.85 362 698C323.002 676.729 290.598 656.197 263 624C247.112 605.4649999999999 231.92 587.84 221 566L212 548C191.577 507.153 177 460.815 177 400C177 358.895 182.469 326.749 194 296C206.502 262.6620000000001 218.494 231.6320000000001 239 206C249.21 193.237 254.906 186.312 266 173C276.0950000000001 160.886 294.086 145.936 306 137C329.615 119.29 364.361 99.702 394 87C401 84 413 82 419 80C432.854 75.382 451.407 72.5990000000001 467 70C473 69 488 67 500 67C535.335 67 560.567 68.162 588 76C595 78 606 81 613 83C630.174 87.907 642.822 95.066 659 102C666 105 674 110 678 113S691 120 696 123S707 132 710 134C747.083 158.722 776.623 197.038 800 236C812.428 256.714 821.63 283.89 830 309C840.242 339.727 842 356.197 842 400C842 444.112 840.332 460.005 830 491C828 497 826 509 823 516C809.96 546.428 790.923 580.1030000000001 773 604C749.98 634.694 718.523 661.318 686 683C672.571 691.952 651.976 702.675 636 708C630 710 620 715 613 717C581.318 726.052 549.749 733 508 733zM512 567C391.548 567 387.406 569.469 365 562C349.67 556.89 335.275 525.087 348 506C355.072 495.392 363.706 488.432 377 484C381 483 406 483 458 483H533L442 392C362 312 351 299 348 294C342.037 285.0560000000001 341.766 265.352 348 256C355.87 244.1950000000001 370.002 229.6 392 234C396 235 401 237 404 238C409 240 422 254 501 332L593 423V348C593 296 593 271 594 267C599.892 249.3250000000001 615.135 228.627 642 234C661.635 238.908 669.742 249.227 676 268C677 272 677 309 677 404L676 534C670.09 551.727 662.062 559.98 644 566L512 567z" />
    <glyph glyph-name="arrow-up-right"
      unicode="&#xEA24;"
      horiz-adv-x="1010" d="M532 650H336C316.888 643.629 302 633.696 302 608C302 582.528 318.442 573.52 338 567C342 566 404 566 480 566H616L442 392C331 280 268 216 266 213C263.38 207.76 260 198.81 260 191C260 167.501 277.884 150 301 150C308.796 150 317.758 153.379 323 156C326 158 390 220 502 332L676 506V371C676 296 677 233 677 229C677 207.734 696.898 192 718 192C739.024 192 753.81 204.237 758 221C760 227 760 231 760 423V618C756.317 625.365 755.028 630.972 748 638S735.367 646.316 728 650H532z" />
    <glyph glyph-name="arrow-up"
      unicode="&#xEA25;"
      horiz-adv-x="1010" d="M513 733C503.451 733 498.868 733.58 492 729C478.597 720.958 228.159 471.318 223 461C219.512 454.024 217.085 444.575 219 435L223 423C227.281 410.155 243.185 400 260 400C267.861 400 275.003 402.501 280 405C283 407 310 433 376 499L468 590V348C468 190 468 105 469 101C474.103 85.693 480.913 78.058 493 70C498 67 499 68 510 68C535.87 68 544.531 81.593 551 101C552 105 552 190 552 348V590L644 499C710 433 737 407 740 405C744.982 402.509 752.14 400 760 400C791.491 400 807.696 429.9100000000001 798 459C796 464 782 478 667 593L534 726C530.014 729.986 520.256 733 513 733z" />
    <glyph glyph-name="arrows-diagonal-2"
      unicode="&#xEA26;"
      horiz-adv-x="1010" d="M218 556C209.645 539.29 199.08 525 174 525C153.3 525 143.059 541.8820000000001 136 556L135 648C135 730 136 740 137 745C142.064 760.194 148.62 767.873 164 773C169 775 176 775 262 775L354 774C368.407 766.797 385 756.996 385 736C385 710.9200000000001 370.71 700.355 354 692H278L369 600C455 514 461 509 464 502S468 494 468 484C468 459.236 450.746 442 426 442C416 442 415 443 408 446S396 455 310 541L218 632V556zM595 358C570.916 358 564.713 347.5700000000001 555 333C552 328 552 326 552 316S553 305 556 298S565 286 651 200L742 108H666C649.06 99.53 635 89.4 635 64C635 43.3 651.882 33.059 666 26H854C868.456 30.818 879.077 41.231 884 56V244C876.797 258.4070000000001 866.996 275 846 275C821.558 275 810.227 260.454 802 244V168L710 259C624 345 619 351 612 354C606 357 604 358 595 358z" />
    <glyph glyph-name="arrows-diagonal"
      unicode="&#xEA27;"
      horiz-adv-x="1010" d="M666 692C649.29 700.355 635 710.9200000000001 635 736C635 752.796 646.732 763.155 657 770C670.24 778.826 695.5889999999999 775 762 775L854 774C868.456 769.182 879.077 758.769 884 744V556C876.848 541.696 866.898 525 846 525C820.92 525 810.355 539.29 802 556V632L710 541C624 455 619 449 612 446S604 442 594 442C569.236 442 552 459.254 552 484C552 494 553 495 556 502S565 514 651 600L742 692H666zM428 358C415.102 358 412.625 357.083 405 352C402 350 368 318 309 259L218 168V244C209.53 260.9400000000001 199.4 275 174 275C153.3 275 143.059 258.1180000000001 136 244L135 152C135 70 136 60 137 55C141.782 40.652 150.34 31.8869999999999 165 27C170 26 180 25 262 25L354 26C368.407 33.203 385 43.004 385 64C385 88.442 370.454 99.773 354 108H278L369 200C455 286 461 291 464 298S468 306 468 316C468 336.468 457.753 347.1230000000001 444 354C438 357 436 358 428 358z" />
    <glyph glyph-name="arrows-maximize"
      unicode="&#xEA28;"
      horiz-adv-x="1010" d="M218 556C209.645 539.29 199.08 525 174 525C153.3 525 143.059 541.8820000000001 136 556L135 648C135 730 136 740 137 745C142.064 760.194 148.62 767.873 164 773C169 775 176 775 262 775L354 774C368.407 766.797 385 756.996 385 736C385 710.9200000000001 370.71 700.355 354 692H278L369 600C455 514 461 509 464 502S468 494 468 484C468 459.236 450.746 442 426 442C416 442 415 443 408 446S396 455 310 541L218 632V556zM666 692C649.29 700.355 635 710.9200000000001 635 736C635 752.796 646.732 763.155 657 770C670.24 778.826 695.5889999999999 775 762 775L854 774C868.456 769.182 879.077 758.769 884 744V556C876.848 541.696 866.898 525 846 525C820.92 525 810.355 539.29 802 556V632L710 541C624 455 619 449 612 446S604 442 594 442C569.236 442 552 459.254 552 484C552 494 553 495 556 502S565 514 651 600L742 692H666zM174 275C199.08 275 209.645 260.7100000000001 218 244V168L309 259C368 318 402 350 405 352C412.617 357.078 415.096 358 428 358C451.066 358 468 339.64 468 316C468 306 467 305 464 298S455 286 369 200L278 108H354C370.71 99.645 385 89.08 385 64C385 43.3 368.118 33.059 354 26L262 25C180 25 170 26 165 27C150.82 31.727 141.79 40.63 137 55C136 60 135 70 135 152L136 244C143.203 258.4070000000001 153.004 275 174 275zM595 358C570.916 358 564.713 347.5700000000001 555 333C552 328 552 326 552 316S553 305 556 298S565 286 651 200L742 108H666C649.06 99.53 635 89.4 635 64C635 43.3 651.882 33.059 666 26H854C868.456 30.818 879.077 41.231 884 56V244C876.797 258.4070000000001 866.996 275 846 275C821.558 275 810.227 260.454 802 244V168L710 259C624 345 619 351 612 354C606 357 604 358 595 358z" />
    <glyph glyph-name="arrows-minimize"
      unicode="&#xEA29;"
      horiz-adv-x="1010" d="M134 817C141.443 817 148.208 813.9300000000001 154 812C159 810 173 796 251 718L343 627V661C343 700.337 343.13 694.392 349 712C351.383 719.1469999999999 361.991 725.994 368 730C373 733 374 732 385 732C410.129 732 419.734 718.796 426 700C427 696 427 667 427 605C427 516 426 515 424 510C420.205 498.614 411.43 489.81 400 486C395 484 394 483 305 483C243 483 214 483 210 484C195.43 488.856 187.702 496.446 180 508C177 513 178 514 178 525C178 549.97 190.55 558.85 209 565C214 566 221 567 249 567H283L192 658C112 738 101 751 98 756C92.037 764.944 91.766 784.648 98 794C105.755 805.633 115.635 817 134 817zM884 817C907.514 817 921.176 801.297 926 782C927.837 772.816 925.814 761.722 922 756C919 751 908 738 828 658L737 567H771C807.769 567 806.46 569.27 821 562C833.332 555.8340000000001 842 544.658 842 525C842 499.127 827.956 490.318 809 484C806 483 774 483 715 483C626 483 625 484 620 486C608.614 489.795 599.81 498.57 596 510C594 515 593 516 593 605C593 667 593 696 594 700C598.856 714.5699999999999 606.446 722.298 618 730C623 733 624 732 635 732C659.97 732 668.85 719.45 675 701C676 696 677 689 677 661V627L768 718C843 793 860 810 865 812C869.678 815.1179999999999 877.685 817 884 817zM304 317C394 317 395 316 400 314C411.386 310.2050000000001 420.19 301.43 424 290C426 285 427 284 427 195C427 133 427 104 426 100C421.144 85.43 413.554 77.702 402 70C397 67 396 68 385 68C360.03 68 351.15 80.55 345 99C344 104 343 111 343 139V173L251 82C172 4 159 -10 154 -12C143.606 -15.465 126.99 -19.326 116 -12C102.93 -3.287 82.651 20.977 98 44C101 49 112 62 192 142L283 233H249C209.663 233 215.608 233.13 198 239C190.853 241.3830000000001 184.006 251.991 180 258C177 263 178 264 178 275C178 299.222 190.188 309.063 208 315C213 316 227 317 304 317zM718 317C644 317 629 316 624 315C607.933 309.645 600.451 302.352 595 286C594 281 593 268 593 192C593 100.6420000000001 591.198 111.406 599 88C601.383 80.853 611.991 74.006 618 70C623 67 624 68 635 68C659.97 68 668.85 80.55 675 99C676 104 677 111 677 139V173L768 82C848 2 861 -9 866 -12C880.69 -21.793 905.28 -13.72 914 -5C923.387 4.3869999999999 933.02 27.47 922 44C919 49 908 62 828 142L737 233H771C807.769 233 806.46 230.73 821 238C833.332 244.1660000000001 842 255.342 842 275C842 300.24 829.57 309.81 811 316C806 317 793 317 718 317z" />
    <glyph glyph-name="artboard"
      unicode="&#xEA2A;"
      horiz-adv-x="1010" d="M343 817C366.033 817 376.087 801.826 384 786L385 757C385 733 384 727 383 722C378.933 709.797 371.121 699.04 359 695C356 694 352 692 349 692H337C317.194 692 306.122 711.514 302 728C301 732 301 743 301 754C301 791.643 306.556 806.852 334 816C337 817 341 817 343 817zM676 817C690.423 817 699.283 810.717 707 803C718.741 791.259 719 780.207 719 754C719 727.831 718.103 716.102 706 704C700.6 698.6 691.747 692 683 692H671C653.577 692 641.564 708.306 637 722C636 727 635 733 635 757L636 786C643.557 801.112 649.041 809.347 666 815C669 816 674 817 676 817zM155 609C181.607 609 193.768 608.232 206 596C211.4 590.6 218 581.7470000000001 218 573V561C218 542.542 202.288 531.7629999999999 188 527C183 526 177 525 153 525L124 526C114.089 530.956 101.571 537.2850000000001 98 548L94 560C90.581 577.094 98.625 588.625 107 597C112.776 602.7760000000001 119.021 608 129 608C132 608 144 609 155 609zM516 609C639 609 647 609 653 607C657 606 663 604 667 602L681 595C685 593 691 587 694 584S703 575 705 571L712 557C714 553 716 546 717 542C719 535 718 527 718 400S719 265 717 258C716 254 714 247 712 243L705 229C703 225 697 219 694 216S685 207 681 205L667 198C663 196 656 194 652 193C645 191 637 192 510 192S375 191 368 193C351.983 197.004 336.212 205.788 326 216C323 219 317 225 315 229L308 243C306 247 304 254 303 258C301 265 302 273 302 400S301 535 303 542C304 546 306 553 308 557L315 571C323.78 588.558 344.654 599.552 364 606C367 607 373 608 377 608S444 609 516 609zM802 573C802 588.443 821.376 608 837 608C840 608 852 609 863 609C901.624 609 918.424 603.304 926 573C927 568 927 565 926 560L922 548C918.482 537.448 906.687 530.5799999999999 896 526L867 525C843 525 837 526 832 527C819.797 531.067 809.04 538.879 805 551C804 554 802 558 802 561V573zM635 525H385V275H635V525zM155 275C180 275 183 275 189 273C203.173 268.275 218 257.148 218 239V227C218 207.194 198.486 196.122 182 192C178 191 167 191 156 191C117.923 191 101.483 197.066 94 227C93 232 93 235 94 240L98 252C101.735 263.207 114.3 269.15 124 274C127 275 136 275 155 275zM866 275L896 274C906.715 269.408 918.53 262.41 922 252L926 240C929.419 222.906 921.375 211.375 913 203C901.408 191.408 889.811 191 864 191C837.831 191 826.102 191.8970000000001 814 204C808.6 209.4 802 218.2530000000001 802 227V239C802 256.1620000000001 817.633 268.544 831 273C836 275 839 275 866 275zM348 108C365.835 108 379.4100000000001 93.361 383 79C385 73 385 70 385 43L384 14C379.044 4.0890000000001 372.715 -8.429 362 -12L350 -16C332.906 -19.419 321.375 -11.375 313 -3C301.259 8.741 301 19.793 301 46C301 80.182 305.4340000000001 90.956 325 104C328 105 334 108 337 108H348zM680 108H670C653.363 108 641.371 91.112 637 78C636 73 635 67 635 43L636 14C640.956 4.0890000000001 647.285 -8.429 658 -12L670 -16C687.094 -19.419 698.625 -11.375 707 -3C718.741 8.741 719 19.793 719 46C719 80.08 714.51 97.83 690 106C687 107 682 108 680 108z" />
    <glyph glyph-name="at"
      unicode="&#xEA2B;"
      horiz-adv-x="1010" d="M781 193C719.124 193 689.22 220.136 661 254C653.657 251.062 642.218 238.774 635 233C608.834 212.067 578.553 200.759 538 194C531 193 520 192 510 192C450.307 192 409.793 212.966 376 240C343.4700000000001 266.023 320.8400000000001 303.0560000000001 308 348C303.11 365.117 302 379.444 302 400C302 437.554 311.46 462.652 322 489C330.4580000000001 510.145 343.686 527.685 359 543C364 548 371 556 376 560C411.875 588.7 451.44 608 516 608C541.932 608 549.081 603.5840000000001 567 600C585.049 596.39 604.873 587.846 618 578C622 575 630 571 635 567C658.595 548.124 680.007 524.986 694 497C714.328 456.345 718 439.973 718 372C718 318.9590000000001 715.412 330.1760000000001 726 309C734.854 291.293 752.322 275 778 275C814.477 275 833.855 295.495 842 324L843 369C843 426.29 839.728 439.637 833 480C826.771 517.3720000000001 806.68 551.809 790 581C759.31 634.708 708.04 670.12 654 701C630.446 714.4590000000001 605.37 719.658 576 727C554.33 732.418 538.377 733 510 733C472.709 733 446.782 730.26 419 721L398 714C375.638 706.546 359.784 696.893 340 687C325.225 679.612 314.583 669.0550000000001 301 660C287.586 651.058 260.838 622.297 251 610C236.034 591.292 218.462 566.655 209 543C192.349 501.371 177 460.266 177 401C177 371.2100000000001 179.188 346.8400000000001 186 323C215.587 219.4449999999999 273.147 146.427 362 102C372 97 386 91 393 89C424.382 80.034 459.914 67 500 67C561.127 67 604.931 80.977 650 96C669.847 100.962 686.324 87.353 693 74C699.151 64.7720000000001 699.435 45.651 693 36C684.952 19.904 669.916 16.679 652 9C610.053 -8.977 571.614 -15 511 -15C445.089 -15 407.931 -8.6849999999999 362 11C260.679 54.424 185.385 119.23 137 216C118.704 252.592 104.647 291.4740000000001 98 338C95.395 356.2380000000001 93 369.249 93 390C93 485.541 118.164 554.037 153 615C176.676 656.433 208.538 691.615 245 722C251 727 261 735 267 739L288 753C308.527 766.685 334.145 778.458 358 788C403.372 806.148 451.197 817 516 817C560.866 817 578.156 812.46 612 804C661.132 791.717 701.607 773.262 738 749C792.206 712.862 835.919 666.8 870 610C877.416 597.64 888.047 578.86 893 564C898.179 548.4649999999999 906.627 531.49 911 514C923.583 463.669 927 429.535 927 362C927 324 926 319 924 310C912.611 253.058 877.01 219.605 828 200C811.637 193.454 807.564 193 781 193zM514 524H498C449.506 524 417.538 488.897 399 458C388.824 441.04 386 426.462 386 400C386 379.896 386.762 373.096 392 360C410.796 313.01 444.733 276 510 276C537.184 276 547.652 281.661 566 289C602.191 303.477 622.748 337.991 633 379C634 383 634 393 634 400C634 458.93 604.437 488.537 567 511C552.283 519.8299999999999 536.5889999999999 524 514 524z" />
    <glyph glyph-name="award"
      unicode="&#xEA2C;"
      horiz-adv-x="1010" d="M277 121C274.62 120.836 155.583 113 153 113C131.83 113 121.224 123.554 114 138C111 144 110 145 110 154S111 165 114 171C116 175 145 228 181 289L246 401C230.075 438.16 214.678 485.807 219 542C220 552 221 565 222 572C224.459 589.212 229.387 601.852 234 618C252.637 683.227 295.685 728.764 344 765C376.161 789.121 418.291 805.049 466 813C472 814 481 816 487 816S502 817 508 817C575.98 817 631.564 795.883 672 767C688.379 755.3 706.01 741.99 720 728C748.484 699.516 770.21 662.106 786 620C800.194 582.15 806.294 527.762 798 478C793.501 451.003 783.904 423.285 774 401L839 289C874 228 904 175 906 171C909 165 910 163 910 154C910 130.249 891.297 113 868 113C836.216 113 773.5360000000001 118.895 743 121C743 121 731 95 715 63C689 11 686 5 681 0C675.273 -5.727 664.587 -12 654 -12C638.118 -12 627.413 -7.62 621 2C614.96 11.0599999999999 620.88 2.0940000000001 510 191C452.51 96.718 412.031 18.375 399 1C390.15 -7.85 383.4220000000001 -12 366 -12C355.395 -12 344.731 -5.731 339 0C328.625 10.375 277.1910000000001 121.014 277 121zM508 733C500 733 490 732 486 732C466.024 732 447.096 722.365 431 717C408.906 709.636 392.998 697.5989999999999 376 684C352.854 665.482 335.86 641.72 322 614C309.652 589.3050000000001 302 561.113 302 525C302 479.862 315.88 449.237 331 419C339.473 402.054 348.92 392.08 363 378C376.79 364.2100000000001 389.495 353.2530000000001 406 345L428 334C445.83 325.086 465.355 322.3300000000001 487 318C492 317 503 317 510 317C590.121 317 640.928 355.91 677 401C703.113 433.642 718 474.872 718 532C718 567.22 707.16 590.5989999999999 697 616C688.865 636.337 673.96 651.8 661 668C651.22 680.225 637.446 690.0360000000001 624 699C593.613 719.258 557.537 733 508 733zM297 323C297 321.456 296.503 321.7150000000001 227 201C228.673 201.136 302.554 206 306 206C317.78 206 325.355 198.646 332 192C337 187 340 182 354 153C363 134 371 119 371 119C439.5420000000001 236.5 441 238.516 441 240C441 243.453 425.982 245.007 421 247C396.808 256.677 369.8450000000001 267.11 349 282C332.877 293.5170000000001 321.372 301.6280000000001 308 315C301 322 298 324 297 323zM722 323C714.257 317.4690000000001 707.533 310.028 697 301C679.206 285.7480000000001 661.168 273.531 638 263C620.038 254.019 605.394 247.679 587 244C582 243 579 241 579 240C579 238.516 648.654 119.592 649 119C649 119 657 134 666 153C680 182 683 187 688 192C694.658 198.658 702.203 206 714 206C717.566 206 791.225 201.144 793 201C736.976 299.043 729.174 310.8440000000001 722 323z" />
    <glyph glyph-name="backspace"
      unicode="&#xEA2D;"
      horiz-adv-x="1010" d="M618 692C842 692 856 692 862 690L874 686C899.349 677.55 918.282 653.8720000000001 925 627C927 620 926 611 926 400S927 180 925 173C915.993 136.973 892.163 118.041 856 109L620 108C446 108 382 108 378 109C375 110 369 111 366 113C346.998 124.401 143.681 333.092 143 334C129.125 352.5 120 367.0470000000001 120 400C120 432.867 128.852 447.136 143 466C145.616 469.488 354.6570000000001 682.862 365 687C368 689 373 690 376 691C380 692 430 692 618 692zM843 608H402L304 509C248 453 205 410 204 408S203 403 203 400S203 394 204 392S248 347 304 291L402 192H843V608zM512 525C479.008 525 461.676 495.973 472 465C474 460 480 455 505 430L534 400L505 370C480 345 474 340 472 335C461.929 304.7870000000001 478.1 276 510 276C520 276 520 276 527 279C533 282 537 285 564 312L594 341L623 312C649 286 653 282 659 279S668 275 674 275C701.204 275 718 291.158 718 319C718 326 717 328 714 334S708 345 682 371L653 400L682 429C708 455 711 460 714 466S718 474 718 481C718 508.865 701.527 525 674 525C668 525 665 524 659 521S649 514 623 488L594 459L564 488C537 515 534 518 528 521S519 525 512 525z" />
    <glyph glyph-name="ban"
      unicode="&#xEA2E;"
      horiz-adv-x="1010" d="M507 817C599.348 817 667.328 789.527 726 756C766.528 732.84 800.085 701.9010000000001 830 667C875.205 614.26 904.582 551.09 921 469C926.277 442.611 926 432.576 926 400C926 305.826 899.365 241.14 865 181C861 174 853 164 849 158C831.15 131.226 803.817 101.68 779 81C748.684 55.736 712.046 31.018 672 16C652.987 8.87 634.298 0.732 613 -4C579.033 -11.548 552.751 -16 510 -16C380.255 -16 297.082 33.93 227 94C205.473 112.452 186.437 134.845 171 158C160.675 173.4880000000001 148.953 189.0940000000001 140 207C112.223 262.555 93 327.8690000000001 93 412C93 442.781 96.97 460.87 103 488C125.691 590.112 175.576 662.208 243 720C265.945 739.667 288.82 755.91 317 770C357.559 790.28 404.55 806.364 458 814C465 815 476 816 483 816S501 817 507 817zM508 733C498 733 485 732 480 732C466.929 732 450.852 727.142 438 725C396.18 718.03 358.608 698.114 327 678C315.587 670.39 309.398 666.398 306 663A196807.16 196807.16 0 0 0 774 196C786.803 216.484 800.588 233.706 811 258C824.03 288.401 835.64 320.477 841 358C842 368 842 377 842 400C842 444.112 840.332 460.005 830 491C828 497 826 509 823 516C809.96 546.428 790.923 580.1030000000001 773 604C749.98 634.694 718.523 661.318 686 683C672.571 691.952 651.976 702.675 636 708C630 710 620 715 613 717C581.318 726.052 549.749 733 508 733zM480 370L246 604L239 594C228.537 580.9200000000001 222.01 566.767 213 551C200.558 529.226 195.234 506.704 187 482C179.146 458.439 177 429.586 177 400C177 358.895 182.469 326.749 194 296C206.502 262.6620000000001 218.494 231.6320000000001 239 206C249.21 193.237 254.906 186.312 266 173C276.0950000000001 160.886 294.086 145.936 306 137C329.615 119.29 364.361 99.702 394 87C401 84 413 82 419 80C432.854 75.382 451.407 72.5990000000001 467 70C473 69 488 67 500 67C535.335 67 560.567 68.162 588 76C595 78 606 81 613 83C630.174 87.907 642.822 95.066 659 102C666 105 674 110 678 113C686.001 119.001 701.541 125.5410000000001 708 132C710 134 713 136 713 136S609 241 480 370z" />
    </font>
</defs>
</svg>
